Поиск

(Funk/Soul/Rhythm'n'Blues/Pop Jazz) [CD] The PB Underground - Stand Up - 2015, FLAC (image+.cue), lossless

(Funk/Soul/Rhythm'n'Blues/Pop Jazz) [CD] The PB Underground - Stand Up - 2015, FLAC (image+.cue), lossless
Треклист:
The PB Underground / Stand Up
Жанр: Funk/Soul/Rhythm'n'Blues/Pop Jazz
Носитель: CD
Страна-производитель диска (релиза): Japan
Год издания: 2015
Издатель (лейбл): P-Vine Records
Аудиокодек: FLAC (*.flac)
Тип рипа: image+.cue
Битрейт аудио: lossless
Продолжительность: 56'02''
Источник (релизер): RedHotBlues
Наличие сканов в содержимом раздачи: да
Треклист:
CD: The PB Underground - Stand Up
01. 30 Days [0:04:43.54]
02. Dance Dance Dance [0:05:20.43]
03. Part Time Lover [0:04:37.60]
04. Little Man [0:04:47.05]
05. Taste Of Freedom [0:04:26.72]
06. Drop It [0:03:39.30]
07. Stand Up [0:05:18.57]
08. Played It Right [0:05:10.26]
09. The Greatest [0:01:53.06]
10. Wake Up With You [0:06:02.56]
11. Which One To Choose [0:05:00.69]
12. You Can Say [0:04:58.67]
 
Лог создания рипа
Exact Audio Copy V1.1 from 23. June 2015
Отчёт EAC об извлечении, выполненном 6. ноября 2015, 2:59
The PB Underground / Stand Up
Дисковод: ATAPI iHAS122 C Adapter: 1 ID: 1
Режим чтения : Достоверность
Использование точного потока : Да
Отключение кэша аудио : Да
Использование указателей C2 : Нет
Коррекция смещения при чтении : 6
Способность читать области Lead-in и Lead-out : Нет
Заполнение пропущенных сэмплов тишиной : Да
Удаление блоков с тишиной в начале и конце : Нет
При вычислениях CRC использовались нулевые сэмплы : Да
Интерфейс : Встроенный Win32-интерфейс для Win NT/2000
Выходной формат : Пользовательский кодировщик
Выбранный битрейт : 768 kBit/s
Качество : Высокий
Добавление ID3-тега : Нет
Утилита сжатия : C:\Program Files\Exact Audio Copy\FLAC\FLAC.EXE
Дополнительные параметры : -6 -V -T "ARTIST=%artist%" -T "TITLE=%title%" -T "ALBUM=%albumtitle%" -T "DATE=%year%" -T "TRACKNUMBER=%tracknr%" -T "GENRE=%genre%" -T "COMMENT=%comment%" -T "BAND=%albuminterpret%" -T "ALBUMARTIST=%albuminterpret%" -T "COMPOSER=%composer%" %haslyrics%--tag-from-file=LYRICS="%lyricsfile%"%haslyrics% -T "DISCNUMBER=%cdnumber%" -T "TOTALDISCS=%totalcds%" -T "TOTALTRACKS=%numtracks%" %hascover%--picture="%coverfile%"%hascover% %source% -o %dest%
TOC извлечённого CD
Трек | Старт | Длительность | Начальный сектор | Конечный сектор
---------------------------------------------------------------------
1 | 0:00.00 | 4:43.54 | 0 | 21278
2 | 4:43.54 | 5:20.43 | 21279 | 45321
3 | 10:04.22 | 4:37.60 | 45322 | 66156
4 | 14:42.07 | 4:47.05 | 66157 | 87686
5 | 19:29.12 | 4:26.72 | 87687 | 107708
6 | 23:56.09 | 3:39.30 | 107709 | 124163
7 | 27:35.39 | 5:18.57 | 124164 | 148070
8 | 32:54.21 | 5:10.26 | 148071 | 171346
9 | 38:04.47 | 1:53.06 | 171347 | 179827
10 | 39:57.53 | 6:02.56 | 179828 | 207033
11 | 46:00.34 | 5:00.69 | 207034 | 229602
12 | 51:01.28 | 4:58.67 | 229603 | 252019
Характеристики диапазона извлечения и сообщения об ошибках
Выбранный диапазон
Имя файла D:\UPLOADS-3\The PB Underground - Stand Up - 2015 - 56'02''\The PB Underground - Stand Up.wav
Пиковый уровень 97.7 %
Скорость извлечения 3.4 X
Качество диапазона 100.0 %
CRC теста D64CBB72
CRC копии D64CBB72
Копирование... OK
Ошибок не произошло
Конец отчёта
---- CUETools DB Plugin V2.1.6
[CTDB TOCID: xI21qHX40GB.4r8w4DbQbX9wpvo-] disk not present in database
Submit result: xI21qHX40GB.4r8w4DbQbX9wpvo- has been uploaded
==== Контрольная сумма отчёта 40AA05D17958CCDE91EB27E256CDB29617F9DC87032A37DC6ED6CB49F1402B3F ====
 
Лог проверки качества
-----------------------
DON'T MODIFY THIS FILE
-----------------------
PERFORMER: auCDtect Task Manager, ver. 1.5.1RC4 build 1.5.1.5
Copyright (c) 2008-2010 y-soft. All rights reserved
http://y-soft.org
ANALYZER: auCDtect: CD records authenticity detector, version 0.8.2
Copyright (c) 2004 Oleg Berngardt. All rights reserved.
Copyright (c) 2004 Alexander Djourik. All rights reserved.
FILE: The PB Underground - Stand Up.flac
Size: 404191770 Hash: B6DA73CED20B1F31F25CE6E52B2257D7 Accuracy: -m0
Conclusion: CDDA 100%
Signature: 595A8D5677D5A353EC7ECE0378FA91D23A11DF4C
Приватный:
Нет (DHT включён)
Размер:
425.22 Мб (445,873,501 байт) » файлов: 13
Участники:
0 раздают, 0 качают (0 участников всего)
Внешние участники:
5 раздают, 1 качают (6 участников всего) [ Обновить ]
No seeders - write a personal message to user M0p94ok. Нет сидеров - пишите личное сообщение пользователю M0p94ok.
08:41
98
Нет комментариев. Ваш будет первым!