Поиск

(Pop-Jazz) Basia - Time and Tide - 1987, APE (image + .cue), lossless

Треклист:
Basia - Time and Tide
Жанр: Pop-Jazz
Год выпуска: 1987
Битрейт аудио: lossless
Продолжительность: 37:23.47
Трэклист:
1. Promises (4:03)
(Basia/Ross/White)
2. Run for Cover (3:38)
(Basia/White)
3. Time and Tide (4:03)
(Trzetrzelewska/White)
4. Freeze Thaw (3:57)
(Basia/White)
5. From Now On (3:45)
(Trzetrzelewska/White)
6. New Day for You (4:27)
(Basia/Ross/White)
7. Prime Time TV (5:22)
(Basia/White)
8. Astrud (4:40)
(Basia/White)
9. How Dare You (3:24)
(Basia/White)
10. Miles Away (4:10)
(Basia/White)
 
Отчёт EAC
Exact Audio Copy V0.99 prebeta 4 from 23. January 2008
Отчёт EAC об извлечении, выполненном 18. апреля 2008, 13:10
Basia / Time and Tide
Дисковод: _NEC DVD_RW ND-4550A Adapter: 0 ID: 2
Режим чтения : Достоверность
Использование точного потока : Да
Отключение кэша аудио : Да
Использование указателей C2 : Нет
Коррекция смещения при чтении : 48
Способность читать области Lead-in и Lead-out : Нет
Заполнение пропущенных сэмплов тишиной : Да
Удаление блоков с тишиной в начале и конце : Нет
При вычислениях CRC использовались нулевые сэмплы : Да
Интерфейс : Встроенный Win32-интерфейс для Win NT/2000
Выходной формат : Внутренние WAV-операции
Формат сэмплов : 44.100 Гц; 16 бит; стерео
TOC извлечённого CD
Трек | Старт | Длительность | Начальный сектор | Конечный сектор
---------------------------------------------------------------------
1 | 0:00.00 | 4:03.55 | 0 | 18279
2 | 4:03.55 | 3:38.17 | 18280 | 34646
3 | 7:41.72 | 4:03.53 | 34647 | 52924
4 | 11:45.50 | 3:57.25 | 52925 | 70724
5 | 15:43.00 | 3:45.37 | 70725 | 87636
6 | 19:28.37 | 4:27.65 | 87637 | 107726
7 | 23:56.27 | 5:22.28 | 107727 | 131904
8 | 29:18.55 | 4:40.37 | 131905 | 152941
9 | 33:59.17 | 3:24.30 | 152942 | 168271
10 | 37:23.47 | 4:11.08 | 168272 | 187104
Характеристики диапазона извлечения и сообщения об ошибках
Выбранный диапазон
Имя файла C:\Documents and Settings\Egor\Мои документы\Моя музыка\Basia\Basia - Time and Tide.wav
Пиковый уровень 95.5 %
Качество диапазона 100.0 %
CRC теста 9FCBFAB0
CRC копии 9FCBFAB0
Копирование... OK
Ошибок не произошло
Конец отчёта
Приватный:
Нет (DHT включён)
Размер:
254.52 Мб (266,879,396 байт) » файлов: 5
Участники:
0 раздают, 0 качают (0 участников всего)
Внешние участники:
--- [ Обновить ]
12:38
5
Нет комментариев. Ваш будет первым!