Поиск

(Pop-Jazz) Basia - The Sweetest Illusion - 1994, APE (image + .cue), lossless

Треклист:
Basia - The Sweetest Illusion
Жанр: Pop-Jazz
Год выпуска: 1994
Продолжительность: 47:53.70
Трэклист:
1. Drunk on Love (4:45)
(Ross/Trzetrzelewska/White)
2. Third Time Lucky (5:01)
(Basia/White)
3. Yearning (5:22)
(Basia/White)
4. She Deserves It / Rachel's Wedding (4:52)
(Basia/White)
5. An Olive Tree (5:01)
(Basia/Robinson/White)
6. The Sweetest Illusion (4:58)
(Basia/White)
7. Perfect Mother (3:51)
(Basia/White)
8. More Fire Than Flame (4:13)
(Basia/White)
9. Simple Pleasures (4:53)
(Basia/White)
10. My Cruel Ways (4:54)
(Basia/White)
11. The Prayer of a Happy Housewife (4:56)
(Basia/White)
 
Отчёт EAC
Exact Audio Copy V0.99 prebeta 4 from 23. January 2008
Отчёт EAC об извлечении, выполненном 17. апреля 2008, 8:45
Basia / The Sweetest Illusion
Дисковод: _NEC DVD_RW ND-4550A Adapter: 0 ID: 2
Режим чтения : Достоверность
Использование точного потока : Да
Отключение кэша аудио : Да
Использование указателей C2 : Нет
Коррекция смещения при чтении : 48
Способность читать области Lead-in и Lead-out : Нет
Заполнение пропущенных сэмплов тишиной : Да
Удаление блоков с тишиной в начале и конце : Нет
При вычислениях CRC использовались нулевые сэмплы : Да
Интерфейс : Встроенный Win32-интерфейс для Win NT/2000
Выходной формат : Внутренние WAV-операции
Формат сэмплов : 44.100 Гц; 16 бит; стерео
TOC извлечённого CD
Трек | Старт | Длительность | Начальный сектор | Конечный сектор
---------------------------------------------------------------------
1 | 0:00.00 | 4:46.22 | 0 | 21471
2 | 4:46.22 | 5:01.15 | 21472 | 44061
3 | 9:47.37 | 5:22.15 | 44062 | 68226
4 | 15:09.52 | 4:52.43 | 68227 | 90169
5 | 20:02.20 | 5:01.02 | 90170 | 112746
6 | 25:03.22 | 4:58.03 | 112747 | 135099
7 | 30:01.25 | 3:50.67 | 135100 | 152416
8 | 33:52.17 | 4:13.40 | 152417 | 171431
9 | 38:05.57 | 4:53.45 | 171432 | 193451
10 | 42:59.27 | 4:54.43 | 193452 | 215544
11 | 47:53.70 | 4:56.55 | 215545 | 237799
Характеристики диапазона извлечения и сообщения об ошибках
Выбранный диапазон
Имя файла E:\Моя музыка\Basia - The Sweetest Illusion.wav
Пиковый уровень 97.7 %
Качество диапазона 100.0 %
CRC теста B2FC20ED
CRC копии B2FC20ED
Копирование... OK
Ошибок не произошло
Конец отчёта
Приватный:
Нет (DHT включён)
Размер:
339.90 Мб (356,415,525 байт) » файлов: 4
Участники:
0 раздают, 0 качают (0 участников всего)
Внешние участники:
5 раздают, 1 качают (6 участников всего) [ Обновить ]
12:38
16
Нет комментариев. Ваш будет первым!