Поиск

(Orchestra Jazz) Xavier Cugat - 16 Most Requested Songs - 1995, FLAC (tracks+.cue), lossless

(Orchestra Jazz) Xavier Cugat - 16 Most Requested Songs - 1995, FLAC (tracks+.cue), lossless
Треклист:
Xavier Cugat - 16 Most Requested Songs
Жанр: Orchestra Jazz
Год выпуска диска: 1995
Аудио кодек: FLAC
Тип рипа: tracks+.cue
Битрейт аудио: lossless
Продолжительность: 47:52
Трэклист:
1. Chica, Chica, Boom, Chic (2:26)
2. Brazil (Aquarela do brasil) (2:50)
3. Thanks for the Dream (Mi sueño azul) (2:49)
4. Amor (3:21)
5. Tico-Tico (3:14)
6. Good, Good, good(That's you, that's you) (3:06)
7. My Shawl (Ombo) (3:17)
8. Oye Negra (2:38)
9. Walter Winchell Rhumba (2:48)
10. You, So it you (3:07)
11. Jalousie (Jealousy) (3:12)
12. La Cumparsita (The Masked One) (3:19)
13. Rhumba at the Waldorf (3:01)
14. Miami Beach Rhumba (3:19)
15. Cuanto le gusta (2:36)
16. South America, take it away (2:49)
Доп. информация:
 
Отчет Eac
Exact Audio Copy V0.99 prebeta 3 from 28. July 2007
EAC extraction logfile from 31. July 2008, 17:33
Xavier Cugat / 16 Most Requested Songs
Used drive : Optiarc DVD RW AD-7170A Adapter: 1 ID: 0
Read mode : Secure
Utilize accurate stream : Yes
Defeat audio cache : No
Make use of C2 pointers : No
Read offset correction : 48
Overread into Lead-In and Lead-Out : No
Fill up missing offset samples with silence : Yes
Delete leading and trailing silent blocks : No
Null samples used in CRC calculations : Yes
Used interface : Native Win32 interface for Win NT & 2000
Gap handling : Appended to previous track
Used output format : User Defined Encoder
Selected bitrate : 768 kBit/s
Quality : High
Add ID3 tag : No
Command line compressor : D:\Program Files\Exact Audio Copy\FLAC\FLAC.EXE
Additional command line options : -V -8 -T "artist=%a" -T "title=%t" -T "album=%g" -T "date=%y" -T "tracknumber=%n" -T "genre=%m" %s
TOC of the extracted CD
Track | Start | Length | Start sector | End sector
---------------------------------------------------------
1 | 0:00.00 | 2:26.12 | 0 | 10961
2 | 2:26.12 | 2:50.00 | 10962 | 23711
3 | 5:16.12 | 2:48.38 | 23712 | 36349
4 | 8:04.50 | 3:21.37 | 36350 | 51461
5 | 11:26.12 | 3:14.00 | 51462 | 66011
6 | 14:40.12 | 3:05.50 | 66012 | 79936
7 | 17:45.62 | 3:17.25 | 79937 | 94736
8 | 21:03.12 | 2:38.25 | 94737 | 106611
9 | 23:41.37 | 2:47.50 | 106612 | 119186
10 | 26:29.12 | 3:07.00 | 119187 | 133211
11 | 29:36.12 | 3:12.00 | 133212 | 147611
12 | 32:48.12 | 3:19.00 | 147612 | 162536
13 | 36:07.12 | 3:01.00 | 162537 | 176111
14 | 39:08.12 | 3:18.38 | 176112 | 190999
15 | 42:26.50 | 2:36.00 | 191000 | 202699
16 | 45:02.50 | 2:50.17 | 202700 | 215466
Track 1
Filename I:\New Music\Xavier Cugat - 16 Most Requested Songs\01 - Chica, Chica, Boom, Chic.wav
Pre-gap length 0:00:02.00
Peak level 100.0 %
Track quality 100.0 %
Test CRC 90D29397
Copy CRC 90D29397
Copy OK
Track 2
Filename I:\New Music\Xavier Cugat - 16 Most Requested Songs\02 - Brazil (Aquarela do brasil).wav
Pre-gap length 0:00:02.57
Peak level 92.5 %
Track quality 99.9 %
Test CRC 2C636589
Copy CRC 2C636589
Copy OK
Track 3
Filename I:\New Music\Xavier Cugat - 16 Most Requested Songs\03 - Thanks for the Dream (Mi sueno azul).wav
Pre-gap length 0:00:03.04
Peak level 99.8 %
Track quality 100.0 %
Test CRC 3A36AEB0
Copy CRC 3A36AEB0
Copy OK
Track 4
Filename I:\New Music\Xavier Cugat - 16 Most Requested Songs\04 - Amor.wav
Pre-gap length 0:00:02.74
Peak level 87.9 %
Track quality 100.0 %
Test CRC E8D65E8B
Copy CRC E8D65E8B
Copy OK
Track 5
Filename I:\New Music\Xavier Cugat - 16 Most Requested Songs\05 - Tico-Tico.wav
Pre-gap length 0:00:02.48
Peak level 78.2 %
Track quality 100.0 %
Test CRC 8C5538AB
Copy CRC 8C5538AB
Copy OK
Track 6
Filename I:\New Music\Xavier Cugat - 16 Most Requested Songs\06 - Good, Good, good(That's you, that's you).wav
Pre-gap length 0:00:02.76
Peak level 88.0 %
Track quality 100.0 %
Test CRC 3244C992
Copy CRC 3244C992
Copy OK
Track 7
Filename I:\New Music\Xavier Cugat - 16 Most Requested Songs\07 - My Shawl (Ombo).wav
Pre-gap length 0:00:02.69
Peak level 72.7 %
Track quality 100.0 %
Test CRC 83BCFC13
Copy CRC 83BCFC13
Copy OK
Track 8
Filename I:\New Music\Xavier Cugat - 16 Most Requested Songs\08 - Oye Negra.wav
Pre-gap length 0:00:03.01
Peak level 96.7 %
Track quality 100.0 %
Test CRC D588F176
Copy CRC D588F176
Copy OK
Track 9
Filename I:\New Music\Xavier Cugat - 16 Most Requested Songs\09 - Walter Winchell Rhumba.wav
Pre-gap length 0:00:02.76
Peak level 82.6 %
Track quality 100.0 %
Test CRC 42D5AB31
Copy CRC 42D5AB31
Copy OK
Track 10
Filename I:\New Music\Xavier Cugat - 16 Most Requested Songs\10 - You, So it you.wav
Pre-gap length 0:00:02.96
Peak level 74.0 %
Track quality 100.0 %
Test CRC E67ECD76
Copy CRC E67ECD76
Copy OK
Track 11
Filename I:\New Music\Xavier Cugat - 16 Most Requested Songs\11 - Jalousie (Jealousy).wav
Pre-gap length 0:00:02.94
Peak level 59.0 %
Track quality 100.0 %
Test CRC 552B09E3
Copy CRC 552B09E3
Copy OK
Track 12
Filename I:\New Music\Xavier Cugat - 16 Most Requested Songs\12 - La Cumparsita (The Masked One).wav
Pre-gap length 0:00:02.73
Peak level 73.7 %
Track quality 100.0 %
Test CRC 71353600
Copy CRC 71353600
Copy OK
Track 13
Filename I:\New Music\Xavier Cugat - 16 Most Requested Songs\13 - Rhumba at the Waldorf.wav
Pre-gap length 0:00:02.84
Peak level 90.6 %
Track quality 99.9 %
Test CRC F425FE5D
Copy CRC F425FE5D
Copy OK
Track 14
Filename I:\New Music\Xavier Cugat - 16 Most Requested Songs\14 - Miami Beach Rhumba.wav
Pre-gap length 0:00:02.49
Peak level 100.0 %
Track quality 100.0 %
Test CRC 404BCF33
Copy CRC 404BCF33
Copy OK
Track 15
Filename I:\New Music\Xavier Cugat - 16 Most Requested Songs\15 - Cuanto le gusta.wav
Pre-gap length 0:00:02.77
Peak level 89.4 %
Track quality 100.0 %
Test CRC 0C6327DF
Copy CRC 0C6327DF
Copy OK
Track 16
Filename I:\New Music\Xavier Cugat - 16 Most Requested Songs\16 - South America, take it away.wav
Pre-gap length 0:00:03.06
Peak level 81.9 %
Track quality 100.0 %
Test CRC 55C21AB7
Copy CRC 55C21AB7
Copy OK
No errors occurred
End of status report
Download available for power users only.
06:06
219
Нет комментариев. Ваш будет первым!