Поиск

(Jazz/Latin Jazz) Ron Carter - Peg Leg - 1977, APE (image+.cue), lossless

(Jazz/Latin Jazz) Ron Carter - Peg Leg - 1977, APE (image+.cue), lossless
Треклист:
Ron Carter - Peg Leg
Жанр: Jazz/Latin Jazz
Год выпуска диска: 1977
Производитель диска: U.S.A.
Аудио кодек: APE
Тип рипа: image+.cue
Битрейт аудио: lossless
Продолжительность: 38:31
Трэклист:
1. PEG LEG (R.Carter) 8:06
2. SHEILA’S SONG (R.Carter) 6:14
3. CHAPTER XI (R.Carter) 5:41
4. EPISTROPHY (T.Monk) 6:06
5. MY SHIP (K.Weill) 5:10
6. PATCHOULI (R.Carter) 7:06
Доп. информация:
RON CARTER- bass, piccolo bass, percussion
BUSTER WILLIAMS- bass
KENNY BARRON- piano
JAY BERLINER- electric & acoustic guitar
TONY INZALACO- drums
BEN RILEY- drums, percussion
JERRY DODGION- flute, alto flute, clarinet
GEORGE MARGE- flute, oboe, clarinet
WALTER KANE- flute, clarinet, bassoon
CHARLES RUSSO- clarinet, bass clarinet
Recorded November 16,18,21,22, 1977
За альбом большое спасибо уважаемой gorall007.
Ipicture опять дурит.
 
Отчёт EAC
Exact Audio Copy V0.99 prebeta 4 from 23. January 2008
EAC extraction logfile from 4. May 2009, 17:09
Ron Carter / Peg leg
Used drive : PLEXTOR DVDR PX-800A Adapter: 1 ID: 1
Read mode : Secure
Utilize accurate stream : Yes
Defeat audio cache : Yes
Make use of C2 pointers : No
Read offset correction : 48
Overread into Lead-In and Lead-Out : No
Fill up missing offset samples with silence : Yes
Delete leading and trailing silent blocks : No
Null samples used in CRC calculations : Yes
Used interface : Installed external ASPI interface
Used output format : Internal WAV Routines
Sample format : 44.100 Hz; 16 Bit; Stereo
TOC of the extracted CD
Track | Start | Length | Start sector | End sector
---------------------------------------------------------
1 | 0:00.00 | 8:05.57 | 0 | 36431
2 | 8:05.57 | 6:15.35 | 36432 | 64591
3 | 14:21.17 | 5:44.00 | 64592 | 90391
4 | 20:05.17 | 6:06.70 | 90392 | 117911
5 | 26:12.12 | 5:14.63 | 117912 | 141524
6 | 31:27.00 | 7:02.47 | 141525 | 173221
Range status and errors
Selected range
Filename E:\Ron Carter Images\Ron Carter\1\Peg Leg\Peg Leg.wav
Peak level 97.9 %
Range quality 99.9 %
Copy CRC FF251307
Copy OK
No errors occurred
AccurateRip summary
Track 1 not present in database
Track 2 not present in database
Track 3 not present in database
Track 4 not present in database
Track 5 not present in database
Track 6 not present in database
None of the tracks are present in the AccurateRip database
End of status report
06:05
280
Нет комментариев. Ваш будет первым!