Поиск

(norway jazz, fusion) Arild Andersen - Arv (Nana Vasconcelos, Frode Alnæs, Bendik Hofseth Bugge Wesseltoft, Paolo Vinaccia)- 1994, FLAC (image+.cue), lossless

(norway jazz, fusion) Arild Andersen - Arv (Nana Vasconcelos, Frode Alnæs, Bendik Hofseth Bugge Wesseltoft, Paolo Vinaccia)- 1994, FLAC (image+.cue), lossless
Треклист:
Arild Andersen - Arv
Жанр: Fusion
Год выпуска диска: 1994
Производитель диска: Kirkelig Kulturverksted (FXCD 133)
Аудио кодек: FLAC
Тип рипа: image+.cue
Битрейт аудио: lossless
Продолжительность: 70:02
Трэклист:
01. Arv I
02. Sjugur og Trollbrura
03. Det var i min ungdom
04. Liten va Guten
05. Gardsguten
06. Guten og jenta
07. Friarstev
08. Nils Tallefjorden
09. Han Ole
10. Kvålins dans
11. Stabbelåten
12. Ho vesl' Astri vår
13. Reven og skyttaren
14. Solfager og Ormekongjen
15. Skuldalsbrura
16. Arv II
 
Review by CDRoots
Bassist Arild Andersen's epic Nordic folk and jazz fusion, with Nana Vasconcelos on percussion, Kirsten Brеten Berg on vocal, munnharpe, langeleik, Bendik Hofseth on tenor and soprano saxophones and guests Bugge Wesseltoft (voice) and Paolo Vinaccia (percussion). It's austere, sparse beauty offers a haunting sound, and gives Braten Berg an perfect platform for her voice. The moods shift constantly from cool Nordic jazz to warm Brazilian rhythms, then overlaps them in something completely original and yet somehow welcoming and familiar.
Recorded in 1993, this was his final recording for KKV before moving into the ECM stable. How could I have missed this one for all these years? Don't make the same mistake. Highly recommended.
 
EAC.log
Exact Audio Copy V0.99 prebeta 5 from 4. May 2009
EAC extraction logfile from 17. March 2010, 17:03
Arild Andersen / Arv
Used drive : BENQ DVD DD DW1620 Adapter: 2 ID: 0
Read mode : Secure
Utilize accurate stream : Yes
Defeat audio cache : Yes
Make use of C2 pointers : No
Read offset correction : 618
Overread into Lead-In and Lead-Out : No
Fill up missing offset samples with silence : Yes
Delete leading and trailing silent blocks : No
Null samples used in CRC calculations : Yes
Used interface : Installed external ASPI interface
Used output format : Internal WAV Routines
Sample format : 44.100 Hz; 16 Bit; Stereo
TOC of the extracted CD
Track | Start | Length | Start sector | End sector
---------------------------------------------------------
1 | 0:00.00 | 3:01.68 | 0 | 13642
2 | 3:01.68 | 4:11.72 | 13643 | 32539
3 | 7:13.65 | 4:59.73 | 32540 | 55037
4 | 12:13.63 | 4:22.17 | 55038 | 74704
5 | 16:36.05 | 4:04.30 | 74705 | 93034
6 | 20:40.35 | 2:57.70 | 93035 | 106379
7 | 23:38.30 | 1:39.13 | 106380 | 113817
8 | 25:17.43 | 4:58.45 | 113818 | 136212
9 | 30:16.13 | 5:32.20 | 136213 | 161132
10 | 35:48.33 | 4:10.32 | 161133 | 179914
11 | 39:58.65 | 2:25.38 | 179915 | 190827
12 | 42:24.28 | 4:36.30 | 190828 | 211557
13 | 47:00.58 | 7:38.55 | 211558 | 245962
14 | 54:39.38 | 7:04.02 | 245963 | 277764
15 | 61:43.40 | 6:01.05 | 277765 | 304844
16 | 67:44.45 | 2:18.18 | 304845 | 315212
Range status and errors
Selected range
Filename C:\Arild Andersen - Arv.wav
Peak level 100.0 %
Range quality 100.0 %
Copy CRC 9756B86C
Copy OK
No errors occurred
AccurateRip summary
Track 1 accurately ripped (confidence 6) [2A9E0EF9]
Track 2 accurately ripped (confidence 6) [ED998035]
Track 3 accurately ripped (confidence 6) [716F12AC]
Track 4 accurately ripped (confidence 6) [B9F9E334]
Track 5 accurately ripped (confidence 6) [B08A469D]
Track 6 accurately ripped (confidence 6) [FEFB56BA]
Track 7 accurately ripped (confidence 6) [DE993A06]
Track 8 accurately ripped (confidence 6) [12A8C475]
Track 9 accurately ripped (confidence 6) [7E338B8E]
Track 10 accurately ripped (confidence 6) [7124BFCD]
Track 11 accurately ripped (confidence 6) [E571F3F3]
Track 12 accurately ripped (confidence 6) [328FD591]
Track 13 accurately ripped (confidence 6) [952FE035]
Track 14 accurately ripped (confidence 6) [28C82989]
Track 15 accurately ripped (confidence 6) [7AE0A3F1]
Track 16 accurately ripped (confidence 6) [7B8494C8]
All tracks accurately ripped
End of status report
Обложки есть. Благодарности за релиз - Drongo (hqshare).
15:23
602
Нет комментариев. Ваш будет первым!