Поиск

(Afro-Cuban Jazz, Neo-Classical) Tiempo Libre (feat. Paquito D’Rivera) - 2009 - Bach in Havana - 2009, FLAC (tracks+.cue), lossless

(Afro-Cuban Jazz, Neo-Classical) Tiempo Libre (feat. Paquito D’Rivera) - 2009 - Bach in Havana - 2009, FLAC (tracks+.cue), lossless
Tiempo Libre - 2009 - Bach in Havana
Жанр: Afro-Cuban Jazz, Neo-Classical
Год выпуска диска: 2009
Производитель диска: Cuba
Аудио кодек: FLAC
Тип рипа: tracks+.cue
Битрейт аудио: lossless
Продолжительность: 47:13
Трэклист:
1. Tu Conga Bach (Conga) (Inspired By The C Minor Fugue, The Well-Tempered Clavier, Book 1) 4:29
2. Fuga (Cha-Cha-Cha) (Based On Sonata In D Minor, BWV 964, II. Fuga-Allegro) 5:22
3. Air On A G String (Bolero) (Based On Orchestral Suite No. 3 In D Major, BWV 1068: II. Air On A G String) 4:25
4. Clave In C Minor (Guaguanco) (Based On Prelude No. 2 In C Minor, BWV 847) 3:09
5. Gavotte (Son) (Based On French Suite No. 5 In G Major, BWV 816: IV. Gavotte) 3:59
6. Mi Orisha (6/8 Bata) (Based On French Suite No. 2 In C Minor, BWV 813: Minuet) 5:37
7. Minuet In G (Guaguanco) 4:39
8. Olas De Yemaya (Bata) (Based On The C Major Prelude, The Well-Tempered Clavier, Book 1) 3:11
9. Baqueteo Con Bajo (Danzon) (Based On Cello Suite No. 1 In G Major, BWV 1007) 3:12
10. Timbach (Timba) (Inspired By The D Major Prelude, The Well-Tempered Clavier, Book 1) 5:03
11. Kyrie (Bata) (Inspired By Mass In B Minor, BWV 232: I. Kyrie) 4:00
Personnel:
Jorge Gomez: keyboards, background vocals, Music Director and arranger;
Joaquin “El Kid” Diaz: lead vocals, bat;
Leandro Gonzalez: congas, percussion, bat, background vocals;
Tebelio “Tony” Fonte: electric bass, chapman stick, background vocals;
Cristobal Ferrer Garcia: trumpet, trombone, background vocals;
Hilario Bell: percussion, timbales, bat, background voice;
Luis “Rosca” Beltran Castillo: tenor saxophone, guiro, background vocals.
Featuring:
Paquito D’Rivera: alto saxophone on tracks 3, 5 and clarinet on track 9;
Yosvany Terry: sheker on track 6, alto saxophone on track 7.
Рип от pastafari.
 
EAC extraction logfile
Exact Audio Copy V0.99 prebeta 4 from 23. January 2008
EAC extraction logfile from 28. May 2010, 4:04
Tiempo Libre / Bach in Havana
Used drive : TSSTcorpCDDVDW TS-H653N Adapter: 2 ID: 2
Read mode : Secure
Utilize accurate stream : Yes
Defeat audio cache : Yes
Make use of C2 pointers : No
Read offset correction : 6
Overread into Lead-In and Lead-Out : No
Fill up missing offset samples with silence : Yes
Delete leading and trailing silent blocks : No
Null samples used in CRC calculations : Yes
Used interface : Native Win32 interface for Win NT & 2000
Gap handling : Appended to previous track
Used output format : User Defined Encoder
Selected bitrate : 1024 kBit/s
Quality : High
Add ID3 tag : No
Command line compressor : C:\Program Files\FLAC -\flac.exe
Additional command line options : -5 -V -T "artist=%a" -T "title=%t" -T "album=%g" -T "date=%y" -T "tracknumber=%n" -T "genre=%m" -T comment="shared by pastafari cubensis" %s
TOC of the extracted CD
Track | Start | Length | Start sector | End sector
---------------------------------------------------------
1 | 0:00.00 | 4:29.48 | 0 | 20222
2 | 4:29.48 | 5:22.26 | 20223 | 44398
3 | 9:51.74 | 4:25.53 | 44399 | 64326
4 | 14:17.52 | 3:09.16 | 64327 | 78517
5 | 17:26.68 | 3:59.44 | 78518 | 96486
6 | 21:26.37 | 5:37.71 | 96487 | 121832
7 | 27:04.33 | 4:39.27 | 121833 | 142784
8 | 31:43.60 | 3:11.55 | 142785 | 157164
9 | 34:55.40 | 3:12.47 | 157165 | 171611
10 | 38:08.12 | 5:03.46 | 171612 | 194382
11 | 43:11.58 | 4:00.35 | 194383 | 212417
Track 1
Filename C:\CD_buffer\Tiempo Libre - 2009 - Bach in Havana [FLAC]\01- Tu conga Bach.wav
Pre-gap length 0:00:02.00
Peak level 100.0 %
Track quality 99.9 %
Test CRC 280C5C13
Copy CRC 280C5C13
Copy OK
Track 2
Filename C:\CD_buffer\Tiempo Libre - 2009 - Bach in Havana [FLAC]\02- Fuga.wav
Peak level 100.0 %
Track quality 100.0 %
Test CRC E1F0D213
Copy CRC E1F0D213
Copy OK
Track 3
Filename C:\CD_buffer\Tiempo Libre - 2009 - Bach in Havana [FLAC]\03- Air on G String.wav
Peak level 97.4 %
Track quality 100.0 %
Test CRC 3A9EF37E
Copy CRC 3A9EF37E
Copy OK
Track 4
Filename C:\CD_buffer\Tiempo Libre - 2009 - Bach in Havana [FLAC]\04- Clave in C Minor.wav
Peak level 100.0 %
Track quality 100.0 %
Test CRC 63D0CABD
Copy CRC 63D0CABD
Copy OK
Track 5
Filename C:\CD_buffer\Tiempo Libre - 2009 - Bach in Havana [FLAC]\05- Gavotte.wav
Peak level 100.0 %
Track quality 100.0 %
Test CRC 98F6B3E2
Copy CRC 98F6B3E2
Copy OK
Track 6
Filename C:\CD_buffer\Tiempo Libre - 2009 - Bach in Havana [FLAC]\06- Mi Orisha.wav
Peak level 100.0 %
Track quality 100.0 %
Test CRC E5CB9C4B
Copy CRC E5CB9C4B
Copy OK
Track 7
Filename C:\CD_buffer\Tiempo Libre - 2009 - Bach in Havana [FLAC]\07- Minuet in G.wav
Peak level 100.0 %
Track quality 100.0 %
Test CRC 00ABC4F8
Copy CRC 00ABC4F8
Copy OK
Track 8
Filename C:\CD_buffer\Tiempo Libre - 2009 - Bach in Havana [FLAC]\08- Olas de Yemayб.wav
Peak level 100.0 %
Track quality 100.0 %
Test CRC 9E953830
Copy CRC 9E953830
Copy OK
Track 9
Filename C:\CD_buffer\Tiempo Libre - 2009 - Bach in Havana [FLAC]\09- Baqueteo con bajo.wav
Peak level 98.4 %
Track quality 100.0 %
Test CRC BAECA566
Copy CRC BAECA566
Copy OK
Track 10
Filename C:\CD_buffer\Tiempo Libre - 2009 - Bach in Havana [FLAC]\10- Timbach.wav
Peak level 100.0 %
Track quality 100.0 %
Test CRC 7F4D4FAA
Copy CRC 7F4D4FAA
Copy OK
Track 11
Filename C:\CD_buffer\Tiempo Libre - 2009 - Bach in Havana [FLAC]\11- Kyrie.wav
Peak level 100.0 %
Track quality 100.0 %
Test CRC EE771BB6
Copy CRC EE771BB6
Copy OK
No errors occurred
End of status report
 
Audiochecker logfile
Started at: пятница, 18. 06. 2010. - 21:45.58
11 files found
01 -===- E:\Музыка\Торренты\Tiempo Libre - 2009 - Bach in Havana [FLAC]\01- Tu conga Bach.flac
Extracted successfully
Conclusion: this track is CDDA with probability 100%
Tempfile successfully deleted.
02 -===- E:\Музыка\Торренты\Tiempo Libre - 2009 - Bach in Havana [FLAC]\02- Fuga.flac
Extracted successfully
Conclusion: this track is CDDA with probability 100%
Tempfile successfully deleted.
03 -===- E:\Музыка\Торренты\Tiempo Libre - 2009 - Bach in Havana [FLAC]\03- Air on G String.flac
Extracted successfully
Conclusion: this track is CDDA with probability 87%
Tempfile successfully deleted.
04 -===- E:\Музыка\Торренты\Tiempo Libre - 2009 - Bach in Havana [FLAC]\04- Clave in C Minor.flac
Extracted successfully
Conclusion: this track is CDDA with probability 100%
Tempfile successfully deleted.
05 -===- E:\Музыка\Торренты\Tiempo Libre - 2009 - Bach in Havana [FLAC]\05- Gavotte.flac
Extracted successfully
Conclusion: this track is CDDA with probability 100%
Tempfile successfully deleted.
06 -===- E:\Музыка\Торренты\Tiempo Libre - 2009 - Bach in Havana [FLAC]\06- Mi Orisha.flac
Extracted successfully
Conclusion: this track is CDDA with probability 100%
Tempfile successfully deleted.
07 -===- E:\Музыка\Торренты\Tiempo Libre - 2009 - Bach in Havana [FLAC]\07- Minuet in G.flac
Extracted successfully
Conclusion: this track is CDDA with probability 100%
Tempfile successfully deleted.
08 -===- E:\Музыка\Торренты\Tiempo Libre - 2009 - Bach in Havana [FLAC]\08- Olas de Yemaya.flac
Error while extracting! Check your rights, free some space if needed and ensure the file is valid.
09 -===- E:\Музыка\Торренты\Tiempo Libre - 2009 - Bach in Havana [FLAC]\09- Baqueteo con bajo.flac
Extracted successfully
Conclusion: this track is CDDA with probability 100%
Tempfile successfully deleted.
10 -===- E:\Музыка\Торренты\Tiempo Libre - 2009 - Bach in Havana [FLAC]\10- Timbach.flac
Extracted successfully
Conclusion: this track is CDDA with probability 100%
Tempfile successfully deleted.
11 -===- E:\Музыка\Торренты\Tiempo Libre - 2009 - Bach in Havana [FLAC]\11- Kyrie.flac
Extracted successfully
Conclusion: this track is CDDA with probability 100%
Tempfile successfully deleted.
Finished at: пятница, 18. 06. 2010. - 21:48.58 (operation time: 0:02.59)
 
Cue
REM GENRE Jazz
REM DATE 2009
REM DISCID A30B100B
REM COMMENT "ExactAudioCopy v0.99pb4"
PERFORMER "Tiempo Libre"
TITLE "Bach in Havana"
FILE "01- Tu conga Bach.flac" WAVE
TRACK 01 AUDIO
TITLE "Tu conga Bach"
PERFORMER "Tiempo Libre"
FLAGS DCP
INDEX 01 00:00:00
FILE "02- Fuga.flac" WAVE
TRACK 02 AUDIO
TITLE "Fuga"
PERFORMER "Tiempo Libre"
FLAGS DCP
INDEX 01 00:00:00
FILE "03- Air on G String.flac" WAVE
TRACK 03 AUDIO
TITLE "Air on G String"
PERFORMER "Tiempo Libre"
FLAGS DCP
INDEX 01 00:00:00
FILE "04- Clave in C Minor.flac" WAVE
TRACK 04 AUDIO
TITLE "Clave in C Minor"
PERFORMER "Tiempo Libre"
FLAGS DCP
INDEX 01 00:00:00
FILE "05- Gavotte.flac" WAVE
TRACK 05 AUDIO
TITLE "Gavotte"
PERFORMER "Tiempo Libre"
FLAGS DCP
INDEX 01 00:00:00
FILE "06- Mi Orisha.flac" WAVE
TRACK 06 AUDIO
TITLE "Mi Orisha"
PERFORMER "Tiempo Libre"
FLAGS DCP
INDEX 01 00:00:00
FILE "07- Minuet in G.flac" WAVE
TRACK 07 AUDIO
TITLE "Minuet in G"
PERFORMER "Tiempo Libre"
FLAGS DCP
INDEX 01 00:00:00
FILE "08- Olas de Yemayб.flac" WAVE
TRACK 08 AUDIO
TITLE "Olas de Yemayб"
PERFORMER "Tiempo Libre"
FLAGS DCP
INDEX 01 00:00:00
FILE "09- Baqueteo con bajo.flac" WAVE
TRACK 09 AUDIO
TITLE "Baqueteo con bajo"
PERFORMER "Tiempo Libre"
FLAGS DCP
INDEX 01 00:00:00
FILE "10- Timbach.flac" WAVE
TRACK 10 AUDIO
TITLE "Timbach"
PERFORMER "Tiempo Libre"
FLAGS DCP
INDEX 01 00:00:00
FILE "11- Kyrie.flac" WAVE
TRACK 11 AUDIO
TITLE "Kyrie"
PERFORMER "Tiempo Libre"
FLAGS DCP
INDEX 01 00:00:00
Ну, таких горячих обработок Баха я ещё не слышал! Присоединяйтесь! Предпрослушка Приятных впечатлений!
16:24
375
Нет комментариев. Ваш будет первым!