Вы используете незарегистрированную версию компонента "Вкладки"!

Поиск

(Norway, Free Improvisation, Experimental, Avant-Garde Jazz) Bleak House (Dag-Filip Roaldsnes, Kim-Erik Pedersen, Tore Sandbakken) - Dark Poetry - 2012, FLAC (tracks+.cue), lossless

(Norway, Free Improvisation, Experimental, Avant-Garde Jazz) Bleak House (Dag-Filip Roaldsnes, Kim-Erik Pedersen, Tore Sandbakken) - Dark Poetry - 2012, FLAC (tracks+.cue), lossless
Треклист:
Bleak House
Dark Poetry
Жанр: Norway, Improvisation, Experimental, Avant-Garde Jazz
Страна-производитель диска: Portugal
Год издания: 2012
Издатель (лейбл): Creative Sources
Номер по каталогу: CS 209
Страна: Norway
Аудиокодек: FLAC (*.flac)
Тип рипа: tracks+.cue
Битрейт аудио: lossless
Продолжительность: 42:58
Источник (релизер): спасибо ivoronen и shummuhs
Наличие сканов в содержимом раздачи: да
Треклист:
01. Entrances
02. Bleak House
03. Short Letter, Long Farewell
04. This Is What We Heard
05. Etude I
06. Poem
07. Graph
08. This Is What We Played
09. Tweak Peak
10. So Low
11. Jakta
12. Trio for Morton Feldman
13. Etude II
14. For Sale - Baby Shoes, Never Worn
 
Лог создания рипа
Exact Audio Copy V1.0 beta 3 from 29. August 2011
EAC extraction logfile from 6. January 2013, 13:09
Bleak House / Dark Poetry
Used drive : TSSTcorpCD/DVDW SH-S182M Adapter: 2 ID: 1
Read mode : Secure
Utilize accurate stream : Yes
Defeat audio cache : Yes
Make use of C2 pointers : No
Read offset correction : 6
Overread into Lead-In and Lead-Out : No
Fill up missing offset samples with silence : Yes
Delete leading and trailing silent blocks : No
Null samples used in CRC calculations : Yes
Used interface : Installed external ASPI interface
Gap handling : Appended to previous track
Used output format : User Defined Encoder
Selected bitrate : 1024 kBit/s
Quality : High
Add ID3 tag : No
Command line compressor : C:\Program Files\eac-1.0beta3\FLAC\FLAC.EXE
Additional command line options : -8 -V -T "ARTIST=%artist%" -T "TITLE=%title%" -T "ALBUM=%albumtitle%" -T "DATE=%year%" -T "TRACKNUMBER=%tracknr%" -T "GENRE=%genre%" -T "PERFORMER=%albuminterpret%" -T "COMPOSER=%composer%" %haslyrics%--tag-from-file=LYRICS="%lyricsfile%"%haslyrics% -T "ALBUMARTIST=%albumartist%" -T "ALBUM ARTIST=%albumartist%" -T "DISCNUMBER=%cdnumber%" -T "TOTALDISCS=%totalcds%" -T "TOTALTRACKS=%numtracks%" -T "COMMENT=ivo" %source% -o %dest%
TOC of the extracted CD
Track | Start | Length | Start sector | End sector
---------------------------------------------------------
1 | 0:00.00 | 1:14.16 | 0 | 5565
2 | 1:14.16 | 6:34.35 | 5566 | 35150
3 | 7:48.51 | 1:07.11 | 35151 | 40186
4 | 8:55.62 | 2:32.52 | 40187 | 51638
5 | 11:28.39 | 4:22.51 | 51639 | 71339
6 | 15:51.15 | 0:54.40 | 71340 | 75429
7 | 16:45.55 | 2:42.26 | 75430 | 87605
8 | 19:28.06 | 1:40.41 | 87606 | 95146
9 | 21:08.47 | 2:32.52 | 95147 | 106598
10 | 23:41.24 | 5:21.07 | 106599 | 130680
11 | 29:02.31 | 2:17.51 | 130681 | 141006
12 | 31:20.07 | 1:37.43 | 141007 | 148324
13 | 32:57.50 | 4:55.02 | 148325 | 170451
14 | 37:52.52 | 5:06.16 | 170452 | 193417
Track 1
Filename E:\igor\eac\01 - Entrances.wav
Pre-gap length 0:00:02.00
Peak level 98.8 %
Extraction speed 3.0 X
Track quality 100.0 %
Test CRC D387FCC2
Copy CRC D387FCC2
Track not present in AccurateRip database
Copy OK
Track 2
Filename E:\igor\eac\02 - Bleak House.wav
Pre-gap length 0:00:02.00
Peak level 90.7 %
Extraction speed 4.7 X
Track quality 100.0 %
Test CRC 800A945F
Copy CRC 800A945F
Track not present in AccurateRip database
Copy OK
Track 3
Filename E:\igor\eac\03 - Short Letter, Long Farewell.wav
Pre-gap length 0:00:02.00
Peak level 42.8 %
Extraction speed 3.6 X
Track quality 100.0 %
Test CRC 79028114
Copy CRC 79028114
Track not present in AccurateRip database
Copy OK
Track 4
Filename E:\igor\eac\04 - This Is What We Heard.wav
Pre-gap length 0:00:02.00
Peak level 61.1 %
Extraction speed 3.9 X
Track quality 99.9 %
Test CRC 40CCF72F
Copy CRC 40CCF72F
Track not present in AccurateRip database
Copy OK
Track 5
Filename E:\igor\eac\05 - Etude I.wav
Pre-gap length 0:00:02.00
Peak level 98.8 %
Extraction speed 5.5 X
Track quality 100.0 %
Test CRC 5AD645A2
Copy CRC 5AD645A2
Track not present in AccurateRip database
Copy OK
Track 6
Filename E:\igor\eac\06 - Poem.wav
Pre-gap length 0:00:01.53
Peak level 55.0 %
Extraction speed 3.8 X
Track quality 100.0 %
Test CRC C010C968
Copy CRC C010C968
Track not present in AccurateRip database
Copy OK
Track 7
Filename E:\igor\eac\07 - Graph.wav
Pre-gap length 0:00:02.00
Peak level 98.8 %
Extraction speed 4.5 X
Track quality 99.9 %
Test CRC 52F22DA9
Copy CRC 52F22DA9
Track not present in AccurateRip database
Copy OK
Track 8
Filename E:\igor\eac\08 - This Is What We Played.wav
Pre-gap length 0:00:02.00
Peak level 83.4 %
Extraction speed 3.9 X
Track quality 99.8 %
Test CRC AD6D174A
Copy CRC AD6D174A
Track not present in AccurateRip database
Copy OK
Track 9
Filename E:\igor\eac\09 - Tweak Peak.wav
Pre-gap length 0:00:02.00
Peak level 98.8 %
Extraction speed 4.8 X
Track quality 99.9 %
Test CRC 32219EFB
Copy CRC 32219EFB
Track not present in AccurateRip database
Copy OK
Track 10
Filename E:\igor\eac\10 - So Low.wav
Pre-gap length 0:00:02.00
Peak level 71.4 %
Extraction speed 6.6 X
Track quality 100.0 %
Test CRC 76B7BF55
Copy CRC 76B7BF55
Track not present in AccurateRip database
Copy OK
Track 11
Filename E:\igor\eac\11 - Jakta.wav
Pre-gap length 0:00:02.00
Peak level 54.6 %
Extraction speed 6.0 X
Track quality 100.0 %
Test CRC 25C6F60B
Copy CRC 25C6F60B
Track not present in AccurateRip database
Copy OK
Track 12
Filename E:\igor\eac\12 - Trio for Morton Feldman.wav
Pre-gap length 0:00:02.00
Peak level 82.8 %
Extraction speed 4.4 X
Track quality 99.8 %
Test CRC 3F793406
Copy CRC 3F793406
Track not present in AccurateRip database
Copy OK
Track 13
Filename E:\igor\eac\13 - Etude II.wav
Pre-gap length 0:00:02.00
Peak level 80.8 %
Extraction speed 7.2 X
Track quality 100.0 %
Test CRC 839FF710
Copy CRC 839FF710
Track not present in AccurateRip database
Copy OK
Track 14
Filename E:\igor\eac\14 - For Sale - Baby Shoes, Never Worn.wav
Pre-gap length 0:00:02.00
Peak level 69.3 %
Extraction speed 7.4 X
Track quality 100.0 %
Test CRC 3B1C74F3
Copy CRC 3B1C74F3
Track not present in AccurateRip database
Copy OK
None of the tracks are present in the AccurateRip database
No errors occurred
End of status report
---- CUETools DB Plugin V2.1.3
[CTDB TOCID: wsMp6S_tGulyDbFKRCZSO4KV4ak-] disk not present in database, Submit result: wsMp6S_tGulyDbFKRCZSO4KV4ak- has been uploaded
==== Log checksum 7D5DFEC2C9C42B2CB2B568BED6A5CC6E7C7C0B11FD3B6CD91E2BCF1F2CAB5A46 ====
 
Содержание индексной карты (.CUE)
REM GENRE "Creative Sources 209"
REM DATE 2012
REM DISCID BA0A120E
REM COMMENT "ExactAudioCopy v1.0b3"
PERFORMER "Bleak House"
TITLE "Dark Poetry"
FILE "01 - Entrances.wav" WAVE
TRACK 01 AUDIO
TITLE "Entrances"
PERFORMER "Bleak House"
INDEX 01 00:00:00
TRACK 02 AUDIO
TITLE "Bleak House"
PERFORMER "Bleak House"
INDEX 00 01:12:16
FILE "02 - Bleak House.wav" WAVE
INDEX 01 00:00:00
TRACK 03 AUDIO
TITLE "Short Letter, Long Farewell"
PERFORMER "Bleak House"
INDEX 00 06:32:35
FILE "03 - Short Letter, Long Farewell.wav" WAVE
INDEX 01 00:00:00
TRACK 04 AUDIO
TITLE "This Is What We Heard"
PERFORMER "Bleak House"
INDEX 00 01:05:11
FILE "04 - This Is What We Heard.wav" WAVE
INDEX 01 00:00:00
TRACK 05 AUDIO
TITLE "Etude I"
PERFORMER "Bleak House"
INDEX 00 02:30:52
FILE "05 - Etude I.wav" WAVE
INDEX 01 00:00:00
TRACK 06 AUDIO
TITLE "Poem"
PERFORMER "Bleak House"
INDEX 00 04:21:11
FILE "06 - Poem.wav" WAVE
INDEX 01 00:00:00
TRACK 07 AUDIO
TITLE "Graph"
PERFORMER "Bleak House"
INDEX 00 00:52:40
FILE "07 - Graph.wav" WAVE
INDEX 01 00:00:00
TRACK 08 AUDIO
TITLE "This Is What We Played"
PERFORMER "Bleak House"
INDEX 00 02:40:26
FILE "08 - This Is What We Played.wav" WAVE
INDEX 01 00:00:00
TRACK 09 AUDIO
TITLE "Tweak Peak"
PERFORMER "Bleak House"
INDEX 00 01:38:41
FILE "09 - Tweak Peak.wav" WAVE
INDEX 01 00:00:00
TRACK 10 AUDIO
TITLE "So Low"
PERFORMER "Bleak House"
INDEX 00 02:30:52
FILE "10 - So Low.wav" WAVE
INDEX 01 00:00:00
TRACK 11 AUDIO
TITLE "Jakta"
PERFORMER "Bleak House"
INDEX 00 05:19:07
FILE "11 - Jakta.wav" WAVE
INDEX 01 00:00:00
TRACK 12 AUDIO
TITLE "Trio for Morton Feldman"
PERFORMER "Bleak House"
INDEX 00 02:15:51
FILE "12 - Trio for Morton Feldman.wav" WAVE
INDEX 01 00:00:00
TRACK 13 AUDIO
TITLE "Etude II"
PERFORMER "Bleak House"
INDEX 00 01:35:43
FILE "13 - Etude II.wav" WAVE
INDEX 01 00:00:00
TRACK 14 AUDIO
TITLE "For Sale: Baby Shoes, Never Worn"
PERFORMER "Bleak House"
INDEX 00 04:53:02
FILE "14 - For Sale - Baby Shoes, Never Worn.wav" WAVE
INDEX 01 00:00:00
 
Лог проверки качества
-----------------------
DON'T MODIFY THIS FILE
-----------------------
PERFORMER: auCDtect Task Manager, ver. 1.5.1RC4 build 1.5.1.5
Copyright (c) 2008-2010 y-soft. All rights reserved
http://y-soft.org
ANALYZER: auCDtect: CD records authenticity detector, version 0.8.2
Copyright (c) 2004 Oleg Berngardt. All rights reserved.
Copyright (c) 2004 Alexander Djourik. All rights reserved.
FILE: 14 - For Sale - Baby Shoes, Never Worn.flac
Size: 26239251 Hash: C9B42BB878CA0D05A4600CCB4422E838 Accuracy: -m0
Conclusion: CDDA 100%
Signature: 2F6F9BAF97705B75AB74CE837D067A429C056647
FILE: 13 - Etude II.flac
Size: 22917049 Hash: CB1AD8251935A04ACF9EAF2C1E23137D Accuracy: -m0
Conclusion: CDDA 100%
Signature: 87643C0A460D5FBEB0FAA06AFCBE6FB4E949A8C0
FILE: 12 - Trio for Morton Feldman.flac
Size: 6200621 Hash: D3D83713534EB8F9AE95054B21431E90 Accuracy: -m0
Conclusion: CDDA 100%
Signature: 0B75ED2CD0C6FC24508000211617A3424CE9D67B
FILE: 11 - Jakta.flac
Size: 6899694 Hash: 659E8A4AA4A285605C0AB5760E4462BA Accuracy: -m0
Conclusion: CDDA 43%
Signature: 4B0C2CA4A92DED8AED8E670B5061D2376ED91D33
FILE: 10 - So Low.flac
Size: 33821753 Hash: 7E4331F6ADA4C980BF810B237DC47BEC Accuracy: -m0
Conclusion: CDDA 99%
Signature: 3443865F14A86A784B5B2BD7E2AC6D9D3E7189AC
FILE: 09 - Tweak Peak.flac
Size: 13731617 Hash: CEFF281E5C6D2D41B29B32DA58186D97 Accuracy: -m0
Conclusion: CDDA 100%
Signature: 408688B87DB12A4B63A65F16E484B5ACE51CD4F2
FILE: 08 - This Is What We Played.flac
Size: 7522642 Hash: 3030283E6FAD1B1F53A9565023918B26 Accuracy: -m0
Conclusion: CDDA 100%
Signature: CEECB767BFD7844687962B93DCF8561BE1C4F622
FILE: 07 - Graph.flac
Size: 12716178 Hash: 16EC890AA83C74D84FA5CDB36AA35762 Accuracy: -m0
Conclusion: CDDA 99%
Signature: 9C3CA4F007AAC732FBDB6AA682FBBE445733849C
FILE: 06 - Poem.flac
Size: 2703422 Hash: 18E8CD947CFF702B49DC2F573222B375 Accuracy: -m0
Conclusion: CDDA 92%
Signature: 033E03F5C17D067FEC89A6DDE2DC1085D0851D83
FILE: 05 - Etude I.flac
Size: 18895316 Hash: 177C94B362EDDA0AB46281CF12EECA3C Accuracy: -m0
Conclusion: CDDA 100%
Signature: 3E4060C4A957AFF978D1E0336C365D3AA98A5DFB
FILE: 04 - This Is What We Heard.flac
Size: 10893166 Hash: F8DC12046C97E0E217F55665A7E64B81 Accuracy: -m0
Conclusion: CDDA 100%
Signature: DF8A4AC0B49F7F7E8980C8D7D5A09DC54977DC0D
FILE: 03 - Short Letter, Long Farewell.flac
Size: 3190157 Hash: 358895666B36F1E600FA9297109DC3E0 Accuracy: -m0
Conclusion: CDDA 87%
Signature: AE2840174E1041C702CA85F14A99D63D22B07298
FILE: 02 - Bleak House.flac
Size: 35390740 Hash: 968B1BC643F8617E3B0D4842C1B2461B Accuracy: -m0
Conclusion: CDDA 99%
Signature: 8EC62732AAC6A8A3404190231ECE0CC65EC0C7D6
FILE: 01 - Entrances.flac
Size: 5974683 Hash: D56F0E5B150C3B6E075079C844F974D2 Accuracy: -m0
Conclusion: CDDA 100%
Signature: F777F613E033A3A989A17C24DE60364495CFFCFD
 
Об альбоме
This is certainly not the first attempt of rendering a narrative or thespian declension of the so-called musical indeterminacy, but the intrinsic heterogeneity, the wise literal references and the bizarre orchestrating techniques, which have been showed on "Dark Poetry" by the Norwegian free-improvising trio of prepared pianist Dag-Filip Roaldsnes, alto saxophonist Kim-Erik Pedersen, and percussionist Tore Sandbakken, makes it one of the most interesting attempt, which tries to follow such a direction along with many quotations and references. After the introduction of the three ideal narrating voices on "Entrances", they seems to offer a potential sonci translation of the notorious novel "Bleak house" by Charles Dickens on the homonymous track, whose constant creaks, tottering and groggy sonic structures and wobbly melodies manages to evoke the cutthroat and sadly realistic plot of the novel, which has still been considered one of the best indictment against law, lawyers, red tapes and nitpicking aspects of many civil jurisdictions, a shadow play for the filthiest side of human nature. The intense low-key broken melodies on "Short letter, long farewell" and their tacit sketchiness seem to evoke another moment of that novel. I mentioned Dickes' novel, but their sonic exploration could be perfect to set to music many other bleak houses from other arts: I could remind the house described by Shirley Jackson on "The Haunting of Hill House" or the imagined houses where characters portrayed by Schiele could live into. Their music sometimes sound deliberately a sort of mirroring of impossible geometries, weird-looking corners, crooked rooms, cramped cells, even when they seek for similar structures in the organic world ("Tweak peak", "Jakla"), within sonic ("So low", "Graph", "Etude I", "Etude II") and literary ("For sale: Baby shoes, never worn", quotation of the known flash fiction by Hemingway). The dedication to Morton Feldman's "Trio" on "Trio for Morton Feldman" cannot be but dutiful to one possible source for inspiration of "Dark Poetry", even if an attentive listening could remind techniques and sketches from John Cage, or Henry Cowell.
 
Состав
Dag-Filip Roaldsnes - prepared piano
Kim-Erik Pedersen - alto saxophone
Tore Sandbakken - drums, percussion
Any questions -> support@pro-jazz.com. По всем вопросам пишите -> support@pro-jazz.com
10:13
166
Нет комментариев. Ваш будет первым!