Вы используете незарегистрированную версию компонента "Вкладки"!

Поиск

(avant-garde) Satoko Fujii Orchestra Nagoya - Sanrei (2008) , FLAC (tracks+.cue), lossless

(avant-garde) Satoko Fujii Orchestra Nagoya - Sanrei (2008) , FLAC (tracks+.cue), lossless
Треклист:


Satoko Fujii Orchestra Nagoya - Sanrei (2008)

Жанр: avant-garde
Год выпуска: 2008
Издатель (лейбл):Bakamo / 07
Формат: FLAC (tracks+.cue)
Битрейт аудио: lossless
Продолжительность 1`08`05
Источник: what.cd
Alto Saxophone – Akihiko Yoshimaru, Shingo Takeda
Baritone Saxophone – Yoshiyuki Hirao
Bass – Atsutomo Ishigaki
Composed By – Natsuki Tamura (tracks: 1, 6), Satoko Fujii (tracks: 3, 4, 7), Yasuhiro Usui* (tracks: 2, 5)
Conductor – Satoko Fujii
Drums – Hisamine Kondo
Guitar – Yasuhiro Usui
Tenor Saxophone – Kenichi Matsumoto, Yoshihiro Hanawa
Trombone – Tomoyuki Mihara
Trombone, Euphonium – Toshinori Terukina
Trumpet – Misaki Ishiwata, Natsuki Tamura, Takahiro Tsujita, Tsutomu Watanabe
Tuba – Tatsuki Yoshino

tracks

1. 五角 / Gokaku [10:29]
2. Eaves [8:30]
3. Blueprint [8:58]
4. 近藤スター / Kondo Star [12:41]
5. 暑月 / Shogetu [8:08]
6. 三角 / Sankaku [8:37]
7. 山嶺 / Sanrei [10:42]


 
.log
Exact Audio Copy V1.0 beta 3 from 29. August 2011
EAC extraction logfile from 17. January 2013, 3:39
Satoko Fujii Orchestra Nagoya / Sanrei
Used drive : SlimtypeeSAU108 8 Adapter: 2 ID: 0
Read mode : Secure
Utilize accurate stream : Yes
Defeat audio cache : Yes
Make use of C2 pointers : No
Read offset correction : 6
Overread into Lead-In and Lead-Out : No
Fill up missing offset samples with silence : Yes
Delete leading and trailing silent blocks : No
Null samples used in CRC calculations : Yes
Used interface : Native Win32 interface for Win NT & 2000
Gap handling : Appended to previous track
Used output format : User Defined Encoder
Selected bitrate : 1024 kBit/s
Quality : High
Add ID3 tag : No
Command line compressor : C:\Program Files (x86)\Exact Audio Copy\Flac\flac.exe
Additional command line options : -8 -V -T "ARTIST=%artist%" -T "TITLE=%title%" -T "ALBUM=%albumtitle%" -T "DATE=%year%" -T "TRACKNUMBER=%tracknr%" -T "GENRE=%genre%" -T "PERFORMER=%albuminterpret%" -T "COMPOSER=%composer%" %haslyrics%--tag-from-file=LYRICS="%lyricsfile%"%haslyrics% -T "ALBUMARTIST=%albumartist%" -T "DISCNUMBER=%cdnumber%" -T "TOTALDISCS=%totalcds%" -T "TOTALTRACKS=%numtracks%" -T "COMMENT=%comment%" %source% -o %dest%
TOC of the extracted CD
Track | Start | Length | Start sector | End sector
---------------------------------------------------------
1 | 0:00.00 | 10:28.66 | 0 | 47165
2 | 10:28.66 | 8:30.36 | 47166 | 85451
3 | 18:59.27 | 8:58.18 | 85452 | 125819
4 | 27:57.45 | 12:40.60 | 125820 | 182879
5 | 40:38.30 | 8:07.69 | 182880 | 219473
6 | 48:46.24 | 8:36.58 | 219474 | 258231
7 | 57:23.07 | 10:41.48 | 258232 | 306354
Track 1
Filename G:\_MUSIC ALL\Satoko Fujii Orchestra Nagoya - Sanrei (2008) [FLAC]\01 - Gokaku.wav
Pre-gap length 0:00:02.00
Peak level 100.0 %
Extraction speed 2.1 X
Track quality 100.0 %
Test CRC AAC58628
Copy CRC AAC58628
Accurately ripped (confidence 1) [0D107DE9] (AR v1)
Copy OK
Track 2
Filename G:\_MUSIC ALL\Satoko Fujii Orchestra Nagoya - Sanrei (2008) [FLAC]\02 - Eaves.wav
Pre-gap length 0:00:03.00
Peak level 99.3 %
Extraction speed 2.4 X
Track quality 100.0 %
Test CRC 946688E7
Copy CRC 946688E7
Accurately ripped (confidence 1) [56B24951] (AR v1)
Copy OK
Track 3
Filename G:\_MUSIC ALL\Satoko Fujii Orchestra Nagoya - Sanrei (2008) [FLAC]\03 - Blueprint.wav
Pre-gap length 0:00:03.00
Peak level 100.0 %
Extraction speed 2.8 X
Track quality 100.0 %
Test CRC 5DEE7B92
Copy CRC 5DEE7B92
Accurately ripped (confidence 1) [E0419AA7] (AR v1)
Copy OK
Track 4
Filename G:\_MUSIC ALL\Satoko Fujii Orchestra Nagoya - Sanrei (2008) [FLAC]\04 - Kondo Star.wav
Pre-gap length 0:00:02.00
Peak level 100.0 %
Extraction speed 3.2 X
Track quality 100.0 %
Test CRC 31967AD3
Copy CRC 31967AD3
Accurately ripped (confidence 1) [EF6E9B07] (AR v1)
Copy OK
Track 5
Filename G:\_MUSIC ALL\Satoko Fujii Orchestra Nagoya - Sanrei (2008) [FLAC]\05 - Shogetu.wav
Pre-gap length 0:00:03.00
Peak level 89.3 %
Extraction speed 3.4 X
Track quality 100.0 %
Test CRC F0D105F2
Copy CRC F0D105F2
Accurately ripped (confidence 1) [22A44131] (AR v1)
Copy OK
Track 6
Filename G:\_MUSIC ALL\Satoko Fujii Orchestra Nagoya - Sanrei (2008) [FLAC]\06 - Sankaku.wav
Pre-gap length 0:00:03.00
Peak level 98.4 %
Extraction speed 3.6 X
Track quality 100.0 %
Test CRC C5C7C4FC
Copy CRC C5C7C4FC
Accurately ripped (confidence 1) [F73C3970] (AR v1)
Copy OK
Track 7
Filename G:\_MUSIC ALL\Satoko Fujii Orchestra Nagoya - Sanrei (2008) [FLAC]\07 - Sanrei.wav
Pre-gap length 0:00:03.00
Peak level 100.0 %
Extraction speed 3.9 X
Track quality 100.0 %
Test CRC A7F3FC9B
Copy CRC A7F3FC9B
Accurately ripped (confidence 1) [37FE7C91] (AR v1)
Copy OK
All tracks accurately ripped
No errors occurred
End of status report
---- CUETools DB Plugin V2.1.3
[CTDB TOCID: aad0qmB4r54TI75xB0r9f4x5khw-] disk not present in database, Submit result: aad0qmB4r54TI75xB0r9f4x5khw- has been uploaded
==== Log checksum F0578E9079F8E9CFB9FF70A11450B9E41BC12F63338A4978853D437036BA8D7A ====
 
.cue
REM GENRE Jazz
REM DATE 2008
REM DISCID 580FF407
REM COMMENT "ExactAudioCopy v1.0b3"
PERFORMER "Satoko Fujii Orchestra Nagoya"
TITLE "Sanrei"
FILE "01 - Gokaku.wav" WAVE
TRACK 01 AUDIO
TITLE "Gokaku"
PERFORMER "Satoko Fujii Orchestra Nagoya"
INDEX 01 00:00:00
TRACK 02 AUDIO
TITLE "Eaves"
PERFORMER "Satoko Fujii Orchestra Nagoya"
INDEX 00 10:25:66
FILE "02 - Eaves.wav" WAVE
INDEX 01 00:00:00
TRACK 03 AUDIO
TITLE "Blueprint"
PERFORMER "Satoko Fujii Orchestra Nagoya"
INDEX 00 08:27:36
FILE "03 - Blueprint.wav" WAVE
INDEX 01 00:00:00
TRACK 04 AUDIO
TITLE "Kondo Star"
PERFORMER "Satoko Fujii Orchestra Nagoya"
INDEX 00 08:56:18
FILE "04 - Kondo Star.wav" WAVE
INDEX 01 00:00:00
TRACK 05 AUDIO
TITLE "Shogetu"
PERFORMER "Satoko Fujii Orchestra Nagoya"
INDEX 00 12:37:60
FILE "05 - Shogetu.wav" WAVE
INDEX 01 00:00:00
TRACK 06 AUDIO
TITLE "Sankaku"
PERFORMER "Satoko Fujii Orchestra Nagoya"
INDEX 00 08:04:69
FILE "06 - Sankaku.wav" WAVE
INDEX 01 00:00:00
TRACK 07 AUDIO
TITLE "Sanrei"
PERFORMER "Satoko Fujii Orchestra Nagoya"
INDEX 00 08:33:58
FILE "07 - Sanrei.wav" WAVE
INDEX 01 00:00:00

другие релизы
Any questions -> support@pro-jazz.com. По всем вопросам пишите -> support@pro-jazz.com
10:14
114
Нет комментариев. Ваш будет первым!