Поиск

(MPB / Samba-Jazz / Fusion / Progressive Rock) [CD] Milton Nascimento e Som Imaginario - Milagre dos Peixes: Gravado ao Vivo - 1974 (1995), FLAC (tracks+.cue), lossless

(MPB / Samba-Jazz / Fusion / Progressive Rock) [CD] Milton Nascimento e Som Imaginario - Milagre dos Peixes: Gravado ao Vivo - 1974 (1995), FLAC (tracks+.cue), lossless
Milton Nascimento e Som Imaginário - Milagre dos Peixes: Gravado ao Vivo
Жанр: MPB / Samba-Jazz / Fusion / Progressive Rock
Носитель: CD
Страна-производитель диска и страна исполнителя/группы: Brazil
Год издания: 1974 (1995)
Лейбл: EMI
Номер по каталогу: 830430 2
Аудиокодек: FLAC (*.flac)
Тип рипа: tracks+.cue
Битрейт аудио: lossless
Продолжительность: 1:17:59
Источник (релизер): what.cd (cakos)
Наличие сканов в содержимом раздачи: да
Треклист:
1. A Matança do Porco / Xá Mate (9:26)
2. Bodas (5:02)
3. Milagre dos Peixes (4:04)
4. Outubro (6:25)
5. Sacramento (3:37)
6. Nada Será Como Antes (4:28)
7. Hoje é Dia de El Rey (7:40)
8. Sabe Você (4:00)
9. Viola Violar (4:17)
10. Cais (4:47)
11. Clube da Esquina (3:55)
12. Tema dos Deuses (4:04)
13. A Última Sessão de Música (1:56)
14. San Vicente (5:16)
15. Chove Lá Fora (4:15)
16. Pablo (4:47)
 
Лог создания рипа
Exact Audio Copy V1.0 beta 1 from 15. November 2010
EAC extraction logfile from 11. April 2011, 17:54
Milton Nascimento e Som Imaginário / Milagre dos Peixes Ao Vivo
Used drive : TSSTcorpCDDVDW TS-L633C Adapter: 0 ID: 1
Read mode : Secure
Utilize accurate stream : Yes
Defeat audio cache : Yes
Make use of C2 pointers : No
Read offset correction : 6
Overread into Lead-In and Lead-Out : No
Fill up missing offset samples with silence : Yes
Delete leading and trailing silent blocks : No
Null samples used in CRC calculations : Yes
Used interface : Native Win32 interface for Win NT & 2000
Gap handling : Appended to previous track
Used output format : User Defined Encoder
Selected bitrate : 1024 kBit/s
Quality : High
Add ID3 tag : No
Command line compressor : C:\Program Files (x86)\Exact Audio Copy\FLAC\FLAC.EXE
Additional command line options : -8 -V -T "ARTIST=%a" -T "TITLE=%t" -T "ALBUM=%g" -T "DATE=%y" -T "TRACKNUMBER=%n" -T "GENRE=%m" -T "COMMENT=%e" %j--picture="%i"%j %s -o %d
TOC of the extracted CD
Track | Start | Length | Start sector | End sector
---------------------------------------------------------
1 | 0:00.00 | 9:25.45 | 0 | 42419
2 | 9:25.45 | 5:01.57 | 42420 | 65051
3 | 14:27.27 | 4:04.08 | 65052 | 83359
4 | 18:31.35 | 6:25.27 | 83360 | 112261
5 | 24:56.62 | 3:36.48 | 112262 | 128509
6 | 28:33.35 | 4:27.42 | 128510 | 148576
7 | 33:01.02 | 7:40.10 | 148577 | 183086
8 | 40:41.12 | 3:59.58 | 183087 | 201069
9 | 44:40.70 | 4:16.65 | 201070 | 220334
10 | 48:57.60 | 4:46.57 | 220335 | 241841
11 | 53:44.42 | 3:54.63 | 241842 | 259454
12 | 57:39.30 | 4:03.52 | 259455 | 277731
13 | 61:43.07 | 1:55.50 | 277732 | 286406
14 | 63:38.57 | 5:16.15 | 286407 | 310121
15 | 68:54.72 | 4:14.38 | 310122 | 329209
16 | 73:09.35 | 4:46.58 | 329210 | 350717
Track 1
Filename C:\Users\Cako\Desktop\Milton Nascimento e Som Imaginário - 1974 - Milagre dos Peixes Ao Vivo\01. Milton Nascimento e Som Imaginário - A Matança do Porco,Xá-Mate.wav
Pre-gap length 0:00:02.00
Peak level 64.0 %
Extraction speed 3.2 X
Track quality 100.0 %
Test CRC 65FCE8EB
Copy CRC 65FCE8EB
Track not present in AccurateRip database
Copy OK
Track 2
Filename C:\Users\Cako\Desktop\Milton Nascimento e Som Imaginário - 1974 - Milagre dos Peixes Ao Vivo\02. Milton Nascimento e Som Imaginário - Bodas.wav
Peak level 88.1 %
Extraction speed 3.5 X
Track quality 100.0 %
Test CRC 4DC18D2D
Copy CRC 4DC18D2D
Track not present in AccurateRip database
Copy OK
Track 3
Filename C:\Users\Cako\Desktop\Milton Nascimento e Som Imaginário - 1974 - Milagre dos Peixes Ao Vivo\03. Milton Nascimento e Som Imaginário - Milagre dos Peixes.wav
Peak level 84.8 %
Extraction speed 3.7 X
Track quality 100.0 %
Test CRC 4F3478B4
Copy CRC 4F3478B4
Track not present in AccurateRip database
Copy OK
Track 4
Filename C:\Users\Cako\Desktop\Milton Nascimento e Som Imaginário - 1974 - Milagre dos Peixes Ao Vivo\04. Milton Nascimento e Som Imaginário - Outubro.wav
Peak level 71.2 %
Extraction speed 4.1 X
Track quality 100.0 %
Test CRC EE4C8A8D
Copy CRC EE4C8A8D
Track not present in AccurateRip database
Copy OK
Track 5
Filename C:\Users\Cako\Desktop\Milton Nascimento e Som Imaginário - 1974 - Milagre dos Peixes Ao Vivo\05. Milton Nascimento e Som Imaginário - Sacramento.wav
Peak level 65.0 %
Extraction speed 4.0 X
Track quality 100.0 %
Test CRC 001E91A2
Copy CRC 001E91A2
Track not present in AccurateRip database
Copy OK
Track 6
Filename C:\Users\Cako\Desktop\Milton Nascimento e Som Imaginário - 1974 - Milagre dos Peixes Ao Vivo\06. Milton Nascimento e Som Imaginário - Nada Será Como Antes.wav
Peak level 73.7 %
Extraction speed 4.3 X
Track quality 100.0 %
Test CRC AFC741DF
Copy CRC AFC741DF
Track not present in AccurateRip database
Copy OK
Track 7
Filename C:\Users\Cako\Desktop\Milton Nascimento e Som Imaginário - 1974 - Milagre dos Peixes Ao Vivo\07. Milton Nascimento e Som Imaginário - Hoje É Dia de El Rey.wav
Peak level 64.0 %
Extraction speed 4.9 X
Track quality 100.0 %
Test CRC 1391EBB8
Copy CRC 1391EBB8
Track not present in AccurateRip database
Copy OK
Track 8
Filename C:\Users\Cako\Desktop\Milton Nascimento e Som Imaginário - 1974 - Milagre dos Peixes Ao Vivo\08. Milton Nascimento e Som Imaginário - Sabe Você.wav
Peak level 57.5 %
Extraction speed 4.7 X
Track quality 100.0 %
Test CRC 59A8E654
Copy CRC 59A8E654
Track not present in AccurateRip database
Copy OK
Track 9
Filename C:\Users\Cako\Desktop\Milton Nascimento e Som Imaginário - 1974 - Milagre dos Peixes Ao Vivo\09. Milton Nascimento e Som Imaginário - Viola Violar.wav
Peak level 80.7 %
Extraction speed 4.9 X
Track quality 100.0 %
Test CRC C76028ED
Copy CRC C76028ED
Track not present in AccurateRip database
Copy OK
Track 10
Filename C:\Users\Cako\Desktop\Milton Nascimento e Som Imaginário - 1974 - Milagre dos Peixes Ao Vivo\10. Milton Nascimento e Som Imaginário - Cais.wav
Peak level 79.3 %
Extraction speed 5.1 X
Track quality 100.0 %
Test CRC A282190D
Copy CRC A282190D
Track not present in AccurateRip database
Copy OK
Track 11
Filename C:\Users\Cako\Desktop\Milton Nascimento e Som Imaginário - 1974 - Milagre dos Peixes Ao Vivo\11. Milton Nascimento e Som Imaginário - Clube da Esquina.wav
Peak level 61.4 %
Extraction speed 5.1 X
Track quality 100.0 %
Test CRC 6CD3E6A2
Copy CRC 6CD3E6A2
Track not present in AccurateRip database
Copy OK
Track 12
Filename C:\Users\Cako\Desktop\Milton Nascimento e Som Imaginário - 1974 - Milagre dos Peixes Ao Vivo\12. Milton Nascimento e Som Imaginário - Tema dos Deuses.wav
Peak level 61.5 %
Extraction speed 5.3 X
Track quality 100.0 %
Test CRC 8663B1C1
Copy CRC 8663B1C1
Track not present in AccurateRip database
Copy OK
Track 13
Filename C:\Users\Cako\Desktop\Milton Nascimento e Som Imaginário - 1974 - Milagre dos Peixes Ao Vivo\13. Milton Nascimento e Som Imaginário - A Última Sessão de Música.wav
Peak level 43.3 %
Extraction speed 4.6 X
Track quality 100.0 %
Test CRC 1F1AAE24
Copy CRC 1F1AAE24
Track not present in AccurateRip database
Copy OK
Track 14
Filename C:\Users\Cako\Desktop\Milton Nascimento e Som Imaginário - 1974 - Milagre dos Peixes Ao Vivo\14. Milton Nascimento e Som Imaginário - San Vicente.wav
Peak level 73.8 %
Extraction speed 5.7 X
Track quality 100.0 %
Test CRC E2DF938C
Copy CRC E2DF938C
Track not present in AccurateRip database
Copy OK
Track 15
Filename C:\Users\Cako\Desktop\Milton Nascimento e Som Imaginário - 1974 - Milagre dos Peixes Ao Vivo\15. Milton Nascimento e Som Imaginário - Chove Lá Fora.wav
Peak level 46.6 %
Extraction speed 5.6 X
Track quality 100.0 %
Test CRC 3A781A57
Copy CRC 3A781A57
Track not present in AccurateRip database
Copy OK
Track 16
Filename C:\Users\Cako\Desktop\Milton Nascimento e Som Imaginário - 1974 - Milagre dos Peixes Ao Vivo\16. Milton Nascimento e Som Imaginário - Pablo.wav
Peak level 58.6 %
Extraction speed 5.9 X
Track quality 100.0 %
Test CRC 04224419
Copy CRC 04224419
Track not present in AccurateRip database
Copy OK
None of the tracks are present in the AccurateRip database
No errors occurred
End of status report
==== Log checksum C2EE49799DCF7DF899EA3A3621F25AAB8E999857B19488FE0D5FA1B7E6163701 ====
 
Содержание индексной карты (.CUE)
REM GENRE "MPB / Samba-Jazz / Fusion / Progressive Rock"
REM DATE 1974
REM DISCID F6124410
REM COMMENT "ExactAudioCopy v1.0b1"
PERFORMER "Milton Nascimento e Som Imaginario"
TITLE "Milagre dos Peixes: Gravado ao Vivo"
FILE "01 - A Matanca do Porco, Xa Mate.wav" WAVE
TRACK 01 AUDIO
TITLE "A Matanca do Porco / Xa Mate"
PERFORMER "Milton Nascimento e Som Imaginario"
INDEX 01 00:00:00
FILE "02 - Bodas.wav" WAVE
TRACK 02 AUDIO
TITLE "Bodas"
PERFORMER "Milton Nascimento e Som Imaginario"
INDEX 01 00:00:00
FILE "03 - Milagre dos Peixes.wav" WAVE
TRACK 03 AUDIO
TITLE "Milagre dos Peixes"
PERFORMER "Milton Nascimento e Som Imaginario"
INDEX 01 00:00:00
FILE "04 - Outubro.wav" WAVE
TRACK 04 AUDIO
TITLE "Outubro"
PERFORMER "Milton Nascimento e Som Imaginario"
INDEX 01 00:00:00
FILE "05 - Sacramento.wav" WAVE
TRACK 05 AUDIO
TITLE "Sacramento"
PERFORMER "Milton Nascimento e Som Imaginario"
INDEX 01 00:00:00
FILE "06 - Nada Sera Como Antes.wav" WAVE
TRACK 06 AUDIO
TITLE "Nada Sera Como Antes"
PERFORMER "Milton Nascimento e Som Imaginario"
INDEX 01 00:00:00
FILE "07 - Hoje e Dia de El Rey.wav" WAVE
TRACK 07 AUDIO
TITLE "Hoje e Dia de El Rey"
PERFORMER "Milton Nascimento e Som Imaginario"
INDEX 01 00:00:00
FILE "08 - Sabe Voce.wav" WAVE
TRACK 08 AUDIO
TITLE "Sabe Voce"
PERFORMER "Milton Nascimento e Som Imaginario"
INDEX 01 00:00:00
FILE "09 - Viola Violar.wav" WAVE
TRACK 09 AUDIO
TITLE "Viola Violar"
PERFORMER "Milton Nascimento e Som Imaginario"
INDEX 01 00:00:00
FILE "10 - Cais.wav" WAVE
TRACK 10 AUDIO
TITLE "Cais"
PERFORMER "Milton Nascimento e Som Imaginario"
INDEX 01 00:00:00
FILE "11 - Clube da Esquina.wav" WAVE
TRACK 11 AUDIO
TITLE "Clube da Esquina"
PERFORMER "Milton Nascimento e Som Imaginario"
INDEX 01 00:00:00
FILE "12 - Tema dos Deuses.wav" WAVE
TRACK 12 AUDIO
TITLE "Tema dos Deuses"
PERFORMER "Milton Nascimento e Som Imaginario"
INDEX 01 00:00:00
FILE "13 - A Ultima Sessao de Musica.wav" WAVE
TRACK 13 AUDIO
TITLE "A Ultima Sessao de Musica"
PERFORMER "Milton Nascimento e Som Imaginario"
INDEX 01 00:00:00
FILE "14 - San Vicente.wav" WAVE
TRACK 14 AUDIO
TITLE "San Vicente"
PERFORMER "Milton Nascimento e Som Imaginario"
INDEX 01 00:00:00
FILE "15 - Chove La Fora.wav" WAVE
TRACK 15 AUDIO
TITLE "Chove La Fora"
PERFORMER "Milton Nascimento e Som Imaginario"
INDEX 01 00:00:00
FILE "16 - Pablo.wav" WAVE
TRACK 16 AUDIO
TITLE "Pablo"
PERFORMER "Milton Nascimento e Som Imaginario"
INDEX 01 00:00:00
 
Скриншот спектра частот
 
Об исполнителе

Milton Nascimento
WikipediA (english) WikipediA (português) World Music Central (english)
 
О группе

Som Imaginário
WikipediA (português)
 
Состав
Milton Nascimento — voz e guitarra
Som Imaginário
Luiz Alves — baixo
Robertinho Silva — bateria
Toninho Horta — guitarra
Nivaldo Ornelas — sax soprano, sax tenor e flauta
Wagner Tiso — piano e órgão
Orquestra
Gravado ao vivo no «Teatro Municipal» de São Paulo nos dias 7 e 8 de maio de 1974.
19:27
345
Нет комментариев. Ваш будет первым!