Вы используете незарегистрированную версию компонента "Вкладки"!

Поиск

(Modern Jazz Vocal Avant Garde) William Parker Quartet Featuring Leena Conquest - Raining On the Moon - 2002, FLAC (tracks+.cue) lossless

(Modern Jazz Vocal Avant Garde) William Parker Quartet Featuring Leena Conquest - Raining On the Moon - 2002, FLAC (tracks+.cue) lossless
Треклист:
William Parker Quartet Featuring Leena Conquest / Raining On the Moon
Жанр: Modern Jazz Vocal Avant Garde
Страна-производитель диска: USA
Год издания диска: 2002
Издатель (лейбл): Thirsty Ear Records
Номер по каталогу: THI57119.2
Страна: USA
Аудио кодек: FLAC (*.flac)
Тип рипа: tracks+.cue
Битрейт аудио: lossless
Продолжительность: 48:59
Источник (релизер): Оригинальный CD
Наличие сканов в содержимом раздачи: да
Треклист:
1. Hunk Pappa Blues
2. Song of Hope
3. Old Tears
4. Raining on the Moon
5. Music Song
6. The Watermelon Song
7. James Baldwin to the Rescue
8. Donso Ngoni
 
Лог создания рипа
Exact Audio Copy V0.99 prebeta 3 from 28. July 2007
EAC extraction logfile from 13. January 2011, 14:57
Parker, William Quartet / Raining on the Moon
Used drive : HL-DT-STDVDRAM GT20N Adapter: 0 ID: 1
Read mode : Secure
Utilize accurate stream : Yes
Defeat audio cache : Yes
Make use of C2 pointers : No
Read offset correction : 667
Overread into Lead-In and Lead-Out : No
Fill up missing offset samples with silence : Yes
Delete leading and trailing silent blocks : No
Null samples used in CRC calculations : Yes
Used interface : Native Win32 interface for Win NT & 2000
Gap handling : Appended to previous track
Used output format : User Defined Encoder
Selected bitrate : 128 kBit/s
Quality : High
Add ID3 tag : No
Command line compressor : C:\Program Files (x86)\Exact Audio Copy\FLAC\FLAC.EXE
Additional command line options : -8 -V -T "ARTIST=%a" -T "TITLE=%t" -T "ALBUM=%g" -T "DATE=%y" -T "TRACKNUMBER=%n" -T "GENRE=%m" -T "COMMENT=%e" %s -o %d
TOC of the extracted CD
Track | Start | Length | Start sector | End sector
---------------------------------------------------------
1 | 0:00.00 | 6:57.69 | 0 | 31343
2 | 6:57.69 | 6:33.57 | 31344 | 60875
3 | 13:31.51 | 5:32.22 | 60876 | 85797
4 | 19:03.73 | 14:09.08 | 85798 | 149480
5 | 33:13.06 | 3:37.51 | 149481 | 165806
6 | 36:50.57 | 2:28.65 | 165807 | 176971
7 | 39:19.47 | 8:01.00 | 176972 | 213046
8 | 47:20.47 | 1:24.63 | 213047 | 219409
Track 1
Filename C:\Users\USER\01. Parker, William Quartet - Hunk Pappa Blues.wav
Pre-gap length 0:00:02.00
Peak level 98.8 %
Track quality 100.0 %
Test CRC 2A9159F8
Copy CRC 2A9159F8
Accurately ripped (confidence 3) [D0ABBE9F]
Copy OK
Track 2
Filename C:\Users\USER\02. Parker, William Quartet - Song of Hope.wav
Pre-gap length 0:00:02.10
Peak level 100.0 %
Track quality 100.0 %
Test CRC 44A63FCC
Copy CRC 44A63FCC
Accurately ripped (confidence 3) [28C82B92]
Copy OK
Track 3
Filename C:\Users\USER\03. Parker, William Quartet - Old Tears.wav
Pre-gap length 0:00:01.70
Peak level 100.0 %
Track quality 100.0 %
Test CRC 0277A8F1
Copy CRC 0277A8F1
Accurately ripped (confidence 3) [31E98BA8]
Copy OK
Track 4
Filename C:\Users\USER\04. Parker, William Quartet - Raining on the Moon.wav
Pre-gap length 0:00:01.73
Peak level 100.0 %
Track quality 99.9 %
Test CRC 1F86F996
Copy CRC 1F86F996
Accurately ripped (confidence 3) [A5DBA10D]
Copy OK
Track 5
Filename C:\Users\USER\05. Parker, William Quartet - Music Song.wav
Pre-gap length 0:00:02.82
Peak level 98.8 %
Track quality 100.0 %
Test CRC 9A2A7BEF
Copy CRC 9A2A7BEF
Accurately ripped (confidence 3) [E52116D1]
Copy OK
Track 6
Filename C:\Users\USER\06. Parker, William Quartet - The Watermelon Song.wav
Pre-gap length 0:00:02.00
Peak level 98.8 %
Track quality 100.0 %
Test CRC 6CE80398
Copy CRC 6CE80398
Accurately ripped (confidence 3) [C5F41DC2]
Copy OK
Track 7
Filename C:\Users\USER\07. Parker, William Quartet - James Baldwin to the Rescue.wav
Pre-gap length 0:00:01.33
Peak level 100.0 %
Track quality 100.0 %
Test CRC CACD74E6
Copy CRC CACD74E6
Accurately ripped (confidence 3) [70A21611]
Copy OK
Track 8
Filename C:\Users\USER\08. Parker, William Quartet - Donso Ngoni.wav
Pre-gap length 0:00:00.82
Peak level 98.8 %
Track quality 100.0 %
Test CRC 34C7B850
Copy CRC 34C7B850
Accurately ripped (confidence 3) [42B3C160]
Copy OK
All tracks accurately ripped
No errors occurred
End of status report
 
Содержание индексной карты (.CUE)
REM GENRE Jazz
REM DATE 2002
REM DISCID 620B6D08
REM COMMENT "ExactAudioCopy v0.99pb3"
PERFORMER "Parker, William Quartet"
TITLE "Raining on the Moon"
FILE "01. Parker, William Quartet - Hunk Pappa Blues.wav" WAVE
TRACK 01 AUDIO
TITLE "Hunk Pappa Blues"
PERFORMER "Parker, William Quartet"
FLAGS DCP
INDEX 01 00:00:00
TRACK 02 AUDIO
TITLE "Song of Hope"
PERFORMER "Parker, William Quartet"
FLAGS DCP
INDEX 00 06:55:61
FILE "02. Parker, William Quartet - Song of Hope.wav" WAVE
INDEX 01 00:00:00
TRACK 03 AUDIO
TITLE "Old Tears"
PERFORMER "Parker, William Quartet"
FLAGS DCP
INDEX 00 06:32:04
FILE "03. Parker, William Quartet - Old Tears.wav" WAVE
INDEX 01 00:00:00
TRACK 04 AUDIO
TITLE "Raining on the Moon"
PERFORMER "Parker, William Quartet"
FLAGS DCP
INDEX 00 05:30:42
FILE "04. Parker, William Quartet - Raining on the Moon.wav" WAVE
INDEX 01 00:00:00
TRACK 05 AUDIO
TITLE "Music Song"
PERFORMER "Parker, William Quartet"
FLAGS DCP
INDEX 00 14:06:21
FILE "05. Parker, William Quartet - Music Song.wav" WAVE
INDEX 01 00:00:00
TRACK 06 AUDIO
TITLE "The Watermelon Song"
PERFORMER "Parker, William Quartet"
FLAGS DCP
INDEX 00 03:35:51
FILE "06. Parker, William Quartet - The Watermelon Song.wav" WAVE
INDEX 01 00:00:00
TRACK 07 AUDIO
TITLE "James Baldwin to the Rescue"
PERFORMER "Parker, William Quartet"
FLAGS DCP
INDEX 00 02:27:40
FILE "07. Parker, William Quartet - James Baldwin to the Rescue.wav" WAVE
INDEX 01 00:00:00
TRACK 08 AUDIO
TITLE "Donso Ngoni"
PERFORMER "Parker, William Quartet"
FLAGS DCP
INDEX 00 08:00:13
FILE "08. Parker, William Quartet - Donso Ngoni.wav" WAVE
INDEX 01 00:00:00
 
Состав
William Parker- BASS
Rob Brown- ALTO & FLUTE
Louis Barnes- TRUMPET
Hamid Drake- DRUMS
Leena Conquest- VOCALS
Any questions -> support@pro-jazz.com. По всем вопросам пишите -> support@pro-jazz.com
07:39
175
Нет комментариев. Ваш будет первым!