Вы используете незарегистрированную версию компонента "Вкладки"!

Поиск

(Free Jazz, Future Jazz, Experimental, Rune Grammofon) Humcrush (Stale Storlokken, Thomas Stronen) - Rest At World's End - 2008, FLAC (tracks+.cue) lossless

Треклист:
Humcrush (Stale Storlokken, Thomas Stronen) / Rest At World's End
Жанр: Free Jazz, Abstract, Future Jazz, Experimental
Страна-производитель диска: Norway
Год издания диска: 2008
Издатель (лейбл): Rune Grammofon
Номер по каталогу: RCD 2081
Аудио кодек: FLAC (*.flac)
Тип рипа: tracks+.cue
Битрейт аудио: lossless
Продолжительность: 51:18
Источник (релизер): what.cd (barbelith)
Наличие сканов в содержимом раздачи: нет
Треклист:
01 Stream 3:30
02 Edingruv 5:48
03 Rest At World's End 6:01
04 Audio Hydraulic 4:26
05 Steam 6:04
06 Airport 5:21
07 Solar Sail 5:24
08 Creak 3:03
09 Ghost Dance 5:29
10 Bullfight 0:55
11 Hit 5:16
 
Лог создания рипа
X Lossless Decoder version 20100518 (120.3)
XLD extraction logfile from 2010-05-22 15:25:32 +0200
Humcrush / Rest at Worlds End
Used drive : FREECOM_ DVD+/-RW20J6 (revision 9F51)
Use cdparanoia mode : YES (CDParanoia III 10.2 engine)
Disable audio cache : OK for the drive with cache less than 2750KB
Make use of C2 pointers : NO
Read offset correction : 6
Max retry count : 100
TOC of the extracted CD
Track | Start | Length | Start sector | End sector
---------------------------------------------------------
1 | 00:00:00 | 03:30:56 | 0 | 15805
2 | 03:30:56 | 05:47:29 | 15806 | 41859
3 | 09:18:10 | 06:00:72 | 41860 | 68931
4 | 15:19:07 | 04:26:32 | 68932 | 88913
5 | 19:45:39 | 06:03:55 | 88914 | 116193
6 | 25:49:19 | 05:20:68 | 116194 | 140261
7 | 31:10:12 | 05:24:39 | 140262 | 164600
8 | 36:34:51 | 03:03:13 | 164601 | 178338
9 | 39:37:64 | 05:28:49 | 178339 | 202987
10 | 45:06:38 | 00:54:69 | 202988 | 207106
11 | 46:01:32 | 05:16:10 | 207107 | 230816
All Tracks
Album gain : 1.61 dB
Peak : 0.975403
Track 01
Filename : /Humcrush - Rest at Worlds End (2008) {RDC 2081, Rune Grammofon}/01 - Stream.flac
Pre-gap length : 00:02:00
Track gain : -1.62 dB
Peak : 0.971191
CRC32 hash (test run) : C9756A85
CRC32 hash : C9756A85
CRC32 hash (skip zero) : BF650B8F
AccurateRip signature : EE972BAF
->Accurately ripped! (confidence 3)
Statistics
Read error : 0
Skipped (treated as error) : 0
Edge jitter error (maybe fixed) : 0
Atom jitter error (maybe fixed) : 0
Drift error (maybe fixed) : 0
Dropped bytes error (maybe fixed) : 0
Duplicated bytes error (maybe fixed) : 0
Inconsistency in error sectors : 0
Track 02
Filename : /Humcrush - Rest at Worlds End (2008) {RDC 2081, Rune Grammofon}/02 - Edingruv.flac
Track gain : 5.50 dB
Peak : 0.909302
CRC32 hash (test run) : B642295B
CRC32 hash : B642295B
CRC32 hash (skip zero) : 083F30D8
AccurateRip signature : 40F1F88B
->Accurately ripped! (confidence 3)
Statistics
Read error : 0
Skipped (treated as error) : 0
Edge jitter error (maybe fixed) : 0
Atom jitter error (maybe fixed) : 0
Drift error (maybe fixed) : 0
Dropped bytes error (maybe fixed) : 0
Duplicated bytes error (maybe fixed) : 0
Inconsistency in error sectors : 0
Track 03
Filename : /Humcrush - Rest at Worlds End (2008) {RDC 2081, Rune Grammofon}/03 - Rest at Worlds End.flac
Track gain : 5.05 dB
Peak : 0.904846
CRC32 hash (test run) : 1A8A42F1
CRC32 hash : 1A8A42F1
CRC32 hash (skip zero) : 14867C55
AccurateRip signature : AE30D245
->Accurately ripped! (confidence 3)
Statistics
Read error : 0
Skipped (treated as error) : 0
Edge jitter error (maybe fixed) : 0
Atom jitter error (maybe fixed) : 0
Drift error (maybe fixed) : 0
Dropped bytes error (maybe fixed) : 0
Duplicated bytes error (maybe fixed) : 0
Inconsistency in error sectors : 0
Track 04
Filename : /Humcrush - Rest at Worlds End (2008) {RDC 2081, Rune Grammofon}/04 - Audio Hydraulic.flac
Track gain : 11.43 dB
Peak : 0.339752
CRC32 hash (test run) : 93D637CB
CRC32 hash : 93D637CB
CRC32 hash (skip zero) : A8D62320
AccurateRip signature : 0C43E8E3
->Accurately ripped! (confidence 3)
Statistics
Read error : 0
Skipped (treated as error) : 0
Edge jitter error (maybe fixed) : 0
Atom jitter error (maybe fixed) : 0
Drift error (maybe fixed) : 0
Dropped bytes error (maybe fixed) : 0
Duplicated bytes error (maybe fixed) : 0
Inconsistency in error sectors : 0
Track 05
Filename : /Humcrush - Rest at Worlds End (2008) {RDC 2081, Rune Grammofon}/05 - Steam.flac
Track gain : 0.19 dB
Peak : 0.974182
CRC32 hash (test run) : AA86D1B4
CRC32 hash : AA86D1B4
CRC32 hash (skip zero) : 1BA82CD0
AccurateRip signature : 5EC74C95
->Accurately ripped! (confidence 3)
Statistics
Read error : 0
Skipped (treated as error) : 0
Edge jitter error (maybe fixed) : 0
Atom jitter error (maybe fixed) : 0
Drift error (maybe fixed) : 0
Dropped bytes error (maybe fixed) : 0
Duplicated bytes error (maybe fixed) : 0
Inconsistency in error sectors : 0
Track 06
Filename : /Humcrush - Rest at Worlds End (2008) {RDC 2081, Rune Grammofon}/06 - Airport.flac
Track gain : 11.23 dB
Peak : 0.443420
CRC32 hash (test run) : DEFD6E01
CRC32 hash : DEFD6E01
CRC32 hash (skip zero) : BBCEACA8
AccurateRip signature : F5F17679
->Accurately ripped! (confidence 3)
Statistics
Read error : 0
Skipped (treated as error) : 0
Edge jitter error (maybe fixed) : 0
Atom jitter error (maybe fixed) : 0
Drift error (maybe fixed) : 0
Dropped bytes error (maybe fixed) : 0
Duplicated bytes error (maybe fixed) : 0
Inconsistency in error sectors : 0
Track 07
Filename : /Humcrush - Rest at Worlds End (2008) {RDC 2081, Rune Grammofon}/07 - Solar Sail.flac
Track gain : 6.00 dB
Peak : 0.904297
CRC32 hash (test run) : D4C14B72
CRC32 hash : D4C14B72
CRC32 hash (skip zero) : FABFAFB2
AccurateRip signature : 83A49519
->Accurately ripped! (confidence 3)
Statistics
Read error : 0
Skipped (treated as error) : 0
Edge jitter error (maybe fixed) : 0
Atom jitter error (maybe fixed) : 0
Drift error (maybe fixed) : 0
Dropped bytes error (maybe fixed) : 0
Duplicated bytes error (maybe fixed) : 0
Inconsistency in error sectors : 0
Track 08
Filename : /Humcrush - Rest at Worlds End (2008) {RDC 2081, Rune Grammofon}/08 - Creak.flac
Track gain : 4.76 dB
Peak : 0.945465
CRC32 hash (test run) : A23BE8D2
CRC32 hash : A23BE8D2
CRC32 hash (skip zero) : 88409668
AccurateRip signature : 8135F8A9
->Accurately ripped! (confidence 3)
Statistics
Read error : 0
Skipped (treated as error) : 0
Edge jitter error (maybe fixed) : 0
Atom jitter error (maybe fixed) : 0
Drift error (maybe fixed) : 0
Dropped bytes error (maybe fixed) : 0
Duplicated bytes error (maybe fixed) : 0
Inconsistency in error sectors : 0
Track 09
Filename : /Humcrush - Rest at Worlds End (2008) {RDC 2081, Rune Grammofon}/09 - Ghost Dance.flac
Track gain : 6.36 dB
Peak : 0.391327
CRC32 hash (test run) : 82CC89A4
CRC32 hash : 82CC89A4
CRC32 hash (skip zero) : 489C06D9
AccurateRip signature : 9EA4BA43
->Accurately ripped! (confidence 3)
Statistics
Read error : 0
Skipped (treated as error) : 0
Edge jitter error (maybe fixed) : 0
Atom jitter error (maybe fixed) : 0
Drift error (maybe fixed) : 0
Dropped bytes error (maybe fixed) : 0
Duplicated bytes error (maybe fixed) : 0
Inconsistency in error sectors : 0
Track 10
Filename : /Humcrush - Rest at Worlds End (2008) {RDC 2081, Rune Grammofon}/10 - Bullfight.flac
Track gain : -0.10 dB
Peak : 0.851074
CRC32 hash (test run) : 3C0C4B7C
CRC32 hash : 3C0C4B7C
CRC32 hash (skip zero) : E767777E
AccurateRip signature : 09702304
->Accurately ripped! (confidence 3)
Statistics
Read error : 0
Skipped (treated as error) : 0
Edge jitter error (maybe fixed) : 0
Atom jitter error (maybe fixed) : 0
Drift error (maybe fixed) : 0
Dropped bytes error (maybe fixed) : 0
Duplicated bytes error (maybe fixed) : 0
Inconsistency in error sectors : 0
Track 11
Filename : /Humcrush - Rest at Worlds End (2008) {RDC 2081, Rune Grammofon}/11 - Hit.flac
Track gain : 0.26 dB
Peak : 0.975403
CRC32 hash (test run) : 47B27EC9
CRC32 hash : 47B27EC9
CRC32 hash (skip zero) : 5B8B68DF
AccurateRip signature : 2717889A
->Accurately ripped! (confidence 3)
Statistics
Read error : 0
Skipped (treated as error) : 0
Edge jitter error (maybe fixed) : 0
Atom jitter error (maybe fixed) : 0
Drift error (maybe fixed) : 0
Dropped bytes error (maybe fixed) : 0
Duplicated bytes error (maybe fixed) : 0
Inconsistency in error sectors : 0
No errors occurred
End of status report
 
Содержание индексной карты (.CUE)
TITLE "Rest at Worlds End"
PERFORMER "Humcrush"
REM GENRE "Jazz"
REM DATE "2008-12-01"
REM DISCID 970C050B
FILE "01 - Stream.wav" WAVE
TRACK 01 AUDIO
TITLE "Stream"
ISRC NOFGR0881010
INDEX 01 00:00:00
FILE "02 - Edingruv.wav" WAVE
TRACK 02 AUDIO
TITLE "Edingruv"
ISRC NOFGR0881020
INDEX 01 00:00:00
FILE "03 - Rest at Worlds End.wav" WAVE
TRACK 03 AUDIO
TITLE "Rest at Worlds End"
ISRC NOFGR0881030
INDEX 01 00:00:00
FILE "04 - Audio Hydraulic.wav" WAVE
TRACK 04 AUDIO
TITLE "Audio Hydraulic"
ISRC NOFGR0881040
INDEX 01 00:00:00
FILE "05 - Steam.wav" WAVE
TRACK 05 AUDIO
TITLE "Steam"
ISRC NOFGR0881050
INDEX 01 00:00:00
FILE "06 - Airport.wav" WAVE
TRACK 06 AUDIO
TITLE "Airport"
ISRC NOFGR0881060
INDEX 01 00:00:00
FILE "07 - Solar Sail.wav" WAVE
TRACK 07 AUDIO
TITLE "Solar Sail"
ISRC NOFGR0881070
INDEX 01 00:00:00
FILE "08 - Creak.wav" WAVE
TRACK 08 AUDIO
TITLE "Creak"
ISRC NOFGR0881080
INDEX 01 00:00:00
FILE "09 - Ghost Dance.wav" WAVE
TRACK 09 AUDIO
TITLE "Ghost Dance"
ISRC NOFGR0881090
INDEX 01 00:00:00
FILE "10 - Bullfight.wav" WAVE
TRACK 10 AUDIO
TITLE "Bullfight"
ISRC NOFGR0881100
INDEX 01 00:00:00
FILE "11 - Hit.wav" WAVE
TRACK 11 AUDIO
TITLE "Hit"
ISRC NOFGR0881110
INDEX 01 00:00:00
Доп. информация: Recorded live in concert at various venues in Norway.
 
Об альбоме (сборнике)
RCD 2081 - Humcrush: Rest At Worlds End
The third album from these two excellent musicians was recorded live at various European venues, although the high level of musicianship, focus on detail and high recording quality could easily lead you to think it would be a meticulously assembled studio recording. With ”Rest At Worlds End” the duo continue their adventurous explorations of abstract grooves and atmospheric moods. But don't expect any live versions of previous studio tracks, these are all brand new tracks, 11 on the CD and 18 on the limited double LP edition.
Stale Storlokken is a founder member of Supersilent, Elephant9 and Terje Rypdal's Skywards and is probably the most interesting and versatile electric keyboard player operating on the Norwegian scene at the moment.
Drummer and composer Thomas Stronen is a regular member of Food, Maria Kannegaard Trio and Parish, his quartet with the superb Swedish pianist Bobo Stenson.
Released 01.12.08
Reviews 2081
"Rest At Worlds End" is a live album, though it's not exactly dominated by the roar of wild, cheering throngs. Instead, it's largely a quiet effort. The few bursts of noise, like "Creak" and album opener "Stream", are aggressive without being assaultive; Humcrush's brand of crunch is warm and human. The quietest moments of all, like the title track and "Audio Hydraulic", spread the warmth in a manner reminiscent of early 70s Tangerine Dream, before they got sequencer-happy and back when they were still drifting, in Lester Bang's words, "like silt seeping on the ocean floor". When the pair kick into gear, their funk is ascetic and cybernetic, emulating the crisp Swiss perfection of Nik Bartsch's Ronin. Ultimately, Humcrush make unique and uncannily compelling music.
The Wire (UK)
Norwegians Thomas Stronen and Stale Storlokken are here to give us a glimpse into their world of free form, experimental electronic jazz. Have a good listen to this incredible piece of work and don't forget that every tune was recorded live at numerous shows throughout Europe. Impressive and thoroughly enjoyable.
BPM (US)
The drums/keyboards/electronics here flit between muscular rhythmic workouts and chilled atmospheric noodlings, the complex and delicate arrangements betraying the live recording enviroment thanks to the guys'impressive abilities and tasteful twists and turns.
Clash (UK)
Humcrush inhabit the corner of ambient jazz that would appeal to Burial and Epic45 fans alike.
The Word (UK)
A spaceous, skilful inventiveness, floating in and out of controlled quiet through occasional bursts of zigzag rhythm, some lightfingered grooves and a wide selection of old-style cosmic keyboard moves.
Rock-a-Rolla (UK)
Eventyrlysten er stor hos Stale Storlokken og Thomas Stronen. Derfor er det spennende a folge dem gjennom det skjonnmalte og heslige, inn mot stedet det stygt og pent stiller pa samme lag. Storlokkens keyboardsignatur er gjenkjennelig, men det er uforutsigbarheten i spillet hans som er forlokkende. Stronens trommer og elektronikk gir musikken skiftende fasong. Den er atmosfaerisk og abstrakt i det ene oyeblikket og funky og slurvete i det neste. Innbydende melodistubber avloses av korthugd kny. Maken til elektroakustisk fabulering skal man lete lenge og forgjeves etter. At disse to erfarne musikerne klarer a skape et uttrykk som avgrenser seg sa klart fra alt de har vaert involvert i, er imponerende.
Aftenposten (NO)
Humcrushs tredje album er sammensatt av konsertopptak, men preges ikke av utfl ytende improvisasjon fra stoy-og-rytme-jazzduoen. Enkeltsporene er tvert imot hver for seg relativt stramme fremforinger av tydelige ideer om hvilke retninger de skal bevege seg i lyder, volum og takt. «Edingruv» er det beste eksemplet pa hvordan dette kombineres til fullkommenhet. Andre steder kan bevegelsene synes sma, men det veies opp av den totale variasjonsrikdommen. Her og der briljeres det bade i rytmisk kraft («Stream»), spennende tematiske naerstudier («Audio Hydraulic») og lydmessig estetikk («Ghost Dance»). For det uttrykket Stale Storlokkens keyboards og Thomas Stronens trommer og elektronika skaper er forst og fremst uendelig vakkert. Musikken blir aldri mer «eksperimentell» enn at musikernes rytmiske og melodiske spisskompetanse presser seg gjennom stoyen og gjor den tilgjengelig og inkluderende. 5/6.
Bergens Tidende (NO)
En studie i kreativitet og lekenhet.
Jazznytt (NO)
Nagot telepatiskt verkar forsigga emellan dem, for musiken forvandlas hela tiden. Sadant man kan slipa till i studion under inspelningen. Men nu visar det sig att ”Rest At Worlds End” bestar av liveinspelningar fran konserter runt om i Europa. Och anda ar musiken sa helgjuten, sa extremt precis, rytmisk, polyrytmisk, furios och freakad, sa valkomponerad, sa inkannande och ljuvlig. Det saknas inte latar dar tornadon ar i full sving, som de tva versionerna av ”Steam” eller den minutkorta ”Bullfight” med trumprogrammeringar som skottsalvor, spastiska trummor och isarskruvade ackordsfraser. Det ar nastan otackt frant. Men de lagmalda latarna ar de jag fastnar for mest. Som om Arve Henriksen statt i kulissen och pamint om kraften som kommer genom att halla igen. ”Solar Sail” ar en lyrisk parla med ett lugnt groove i botten. ”Ghost Dance” klingar latt och komplext av gamelantrummor och digitalprogrammeringar. ”Audio Hydraulic” satter jag direkt pa repeat, det finns sa mycket narvaro att utforska i det finstamda samspelet. Sa ett litet ord om skivans ljudkvalitet. Med inspelningar fran manga olika konsertlokaler, ar det nagot av en bragd att skivan fatt en sa homogen ljudbild. For mastringen svarar Helge ”Deathprod” Sten. Det later fantastiskt.
Soundofmusic (SE)
Humcrush haben mit „Rest at Worlds End“ einen Meilenstein des elektroakustischen Jazz aufgenommen. Hier ist alles Information und nichts redundantes Fullwerk. Doch das Schonste an dieser – ganz und gar non-ideologischen, quasi ‚objektiven’ – Musik ist letztlich dies: da? sie uns von nichts uberzeugen will und mit allen Wassern desinteressierten Wohlgefallens an akustischen Stoffen und Bewegungsformen gesegnet ist. Wir mussen nichts lieben und nichts hassen, sollen nichts vergessen, bereuen oder anbeten, sondern nur zuhoren. Einfach nur zuhoren.
Jazzthetik (DE)
Power to the people and the beats! So bewegt sich Humcrush unglaublich souveran zwischen Noisejazz und Mikrophilie, zwischen Disko und Kirche, zwischen Elektronen und Klingonen. Thomas Stronen schlagwerkt ansonsten Jazz mit Bobo Stenson und uberschreitet in der Band Food unter Zuhilfenahme von Electronics diverse Grenzen, Stale Storlokken orgelt Aufsehen erregend mit Supersilent und trat zuletzt mit dem wusten Progjazzrock der Elephant9 in Erscheinung. Zusammen haben sie dieses formidable Album, das wie im Studio ausgetuftelt klingt, zur Ganze live eingespielt. Die spinnen, die Norweger, man glaubt es kaum. File under: lustvoll, geistreich, mit viel Soul. Platte des Monats.
freiStil (DE)
 
Состав
Drums, Electronics [Live] - Thomas Stronen
Keyboards, Mixed By - Stale Storlokken
Any questions -> support@pro-jazz.com. По всем вопросам пишите -> support@pro-jazz.com
07:40
185
Нет комментариев. Ваш будет первым!