Вы используете незарегистрированную версию компонента "Вкладки"!

Поиск

(Modern Jazz / Terrorist Be-Bop) Mostly Other People Do the Killing - Shamokin!!! - 2007, FLAC (image+.cue), lossless

(Modern Jazz / Terrorist Be-Bop) Mostly Other People Do the Killing - Shamokin!!! - 2007, FLAC (image+.cue), lossless
Треклист:
Mostly Other People Do the Killing - Shamokin!!!
Жанр: Modern Jazz / Terrorist Be-Bop
Год выпуска диска: 2007
Производитель диска: USA (Hot Cup 063)
Аудио кодек: FLAC
Тип рипа: image+.cue
Битрейт аудио: lossless
Продолжительность: 1:14:07
Peter Evans: trumpet
Jon Irabagon: alto saxophone
Moppa Elliot: double bass
Kevin Shea: drums
1. Handsome Eddy
2. The Hop Bottom Hop
3. Shamokin
4. Sunkelbergers
5. Factoryville
6. Lover
7. Andover
8. Evans City
9. Badem
10. A Night in Tunisia

 
EAC Report
Exact Audio Copy V0.99 prebeta 5 from 4. May 2009
EAC extraction logfile from 16. January 2010, 18:31
Mostly Other People Do the Killing / Shamokin!!!
Used drive : hp DVD-RAM GH40L Adapter: 0 ID: 1
Read mode : Secure
Utilize accurate stream : Yes
Defeat audio cache : Yes
Make use of C2 pointers : No
Read offset correction : 667
Overread into Lead-In and Lead-Out : No
Fill up missing offset samples with silence : Yes
Delete leading and trailing silent blocks : No
Null samples used in CRC calculations : Yes
Used interface : Installed external ASPI interface
Used output format : User Defined Encoder
Selected bitrate : 1024 kBit/s
Quality : High
Add ID3 tag : No
Command line compressor : C:\Program Files\Exact Audio Copy\Flac\flac.exe
Additional command line options : -6 -V -T "ARTIST=%a" -T "TITLE=%t" -T "ALBUM=%g" -T "DATE=%y" -T "TRACKNUMBER=%n" -T "GENRE=%m" -T "COMMENT=EAC FLAC -6" %s
TOC of the extracted CD
Track | Start | Length | Start sector | End sector
---------------------------------------------------------
1 | 0:00.00 | 5:51.13 | 0 | 26337
2 | 5:51.13 | 8:28.12 | 26338 | 64449
3 | 14:19.25 | 3:50.70 | 64450 | 81769
4 | 18:10.20 | 7:48.70 | 81770 | 116939
5 | 25:59.15 | 4:51.56 | 116940 | 138820
6 | 30:50.71 | 4:33.24 | 138821 | 159319
7 | 35:24.20 | 3:50.58 | 159320 | 176627
8 | 39:15.03 | 6:41.51 | 176628 | 206753
9 | 45:56.54 | 6:37.55 | 206754 | 236583
10 | 52:34.34 | 21:32.06 | 236584 | 333489
Range status and errors
Selected range
Filename C:\Users\Igor\Music\eac\Mostly Other People Do the Killing - Shamokin!!!.wav
Peak level 100.0 %
Range quality 100.0 %
Test CRC 46547757
Copy CRC 46547757
Copy OK
No errors occurred
AccurateRip summary
Track 1 accurately ripped (confidence 1) [87CC9916]
Track 2 accurately ripped (confidence 1) [74636663]
Track 3 accurately ripped (confidence 1) [EE4EB822]
Track 4 accurately ripped (confidence 1) [1CFA377C]
Track 5 accurately ripped (confidence 1) [EC485F84]
Track 6 accurately ripped (confidence 1) [E79BED9D]
Track 7 accurately ripped (confidence 1) [C3EB96BE]
Track 8 accurately ripped (confidence 1) [F30C2D41]
Track 9 accurately ripped (confidence 1) [41BB6DAA]
Track 10 accurately ripped (confidence 1) [193C8B3A]
All tracks accurately ripped
End of status report
Any questions -> support@pro-jazz.com. По всем вопросам пишите -> support@pro-jazz.com
18:26
151
Нет комментариев. Ваш будет первым!