Поиск

(Modern Jazz, Ethnic Jazz) Dresch / Gilchrist / Szandai / Drake - Sharing the Shed - 2010, FLAC (tracks+.cue), lossless

(Modern Jazz, Ethnic Jazz) Dresch / Gilchrist / Szandai / Drake - Sharing the Shed - 2010, FLAC (tracks+.cue), lossless
Dresch / Gilchrist / Szandai / Drake / Sharing the Shed
Жанр: Modern Jazz, Ethnic Jazz
Год издания: 2010
Издатель (лейбл): Budapest Music Center Records
Номер по каталогу: BMC CD 174
Страна: Hungary/ USA
Аудиокодек: FLAC (*.flac)
Тип рипа: tracks+.cue
Битрейт аудио: lossless
Продолжительность: 01:02:03
Источник (релизер): 6060842
Наличие сканов в содержимом раздачи: нет
Треклист:
01. Shift one 4:36
02. Delicate Dancer 5:42
03. Le az utcán 5:53
04. Waves 3:10
05. Dried Goods 6:46
06. Naív 7:53
07. All in 8:33
08. Öreg ház ballada 6:11
09. The Night has a Thousand Eyes 6:02
10. Night Spirit 7:26
Dresch, Gilchrist, Szandai, Drake live
 
Лог создания рипа
X Lossless Decoder version 20130407 (143.0)
XLD extraction logfile from 2013-05-22 17:53:15 +0400
Mihály Dresch, Lafayette Gilchrist, Mátyás Szandai, Hamid Drake / Sharing the Shed
Used drive : (null) (null) (revision (null))
Media type :
Ripper mode : XLD Secure Ripper
Disable audio cache : OK for the drive with a cache less than 1375KiB
Make use of C2 pointers : NO
Read offset correction : 6
Max retry count : 20
Gap status : Analyzed, Appended
TOC of the extracted CD
Track | Start | Length | Start sector | End sector
---------------------------------------------------------
1 | 00:00:00 | 04:37:71 | 0 | 20845
2 | 04:37:71 | 05:38:39 | 20846 | 46234
3 | 10:16:35 | 05:57:19 | 46235 | 73028
4 | 16:13:54 | 03:11:01 | 73029 | 87354
5 | 19:24:55 | 06:42:03 | 87355 | 117507
6 | 26:06:58 | 07:48:74 | 117508 | 152681
7 | 33:55:57 | 08:35:71 | 152682 | 191377
8 | 42:31:53 | 06:09:48 | 191378 | 219100
9 | 48:41:26 | 05:57:16 | 219101 | 245891
10 | 54:38:42 | 07:25:09 | 245892 | 279275
AccurateRip Summary
Disc not found in AccurateRip DB.
All Tracks
Album gain : -6.32 dB
Peak : 1.000000
Statistics
Read error : 0
Jitter error (maybe fixed) : 0
Retry sector count : 0
Damaged sector count : 0
Track 01
Filename : /Users/anch/Music/FLAC/Mihaly Dresch, Lafayette Gilchrist, Matyas Szandai, Hamid Drake - 2010 - Sharing the Shed [FLAC]/01 - Shift One.flac
/Users/anch/Music/FLAC/Mihaly Dresch, Lafayette Gilchrist, Matyas Szandai, Hamid Drake - 2010 - Sharing the Shed [MP3 320]/01 - Shift One.mp3
/Users/anch/Music/FLAC/Mihaly Dresch, Lafayette Gilchrist, Matyas Szandai, Hamid Drake - 2010 - Sharing the Shed [MP3 V0]/01 - Shift One.mp3
Pre-gap length : 00:02:00
Track gain : -5.32 dB
Peak : 1.000000
CRC32 hash (test run) : CE53F19A
CRC32 hash : CE53F19A
CRC32 hash (skip zero) : A6C77D34
AccurateRip v1 signature : A4A33FF5
AccurateRip v2 signature : B7FDB372
->Track not present in AccurateRip database.
Statistics
Read error : 0
Jitter error (maybe fixed) : 0
Retry sector count : 0
Damaged sector count : 0
Track 02
Filename : /Users/anch/Music/FLAC/Mihaly Dresch, Lafayette Gilchrist, Matyas Szandai, Hamid Drake - 2010 - Sharing the Shed [FLAC]/02 - Delicate Dancer.flac
/Users/anch/Music/FLAC/Mihaly Dresch, Lafayette Gilchrist, Matyas Szandai, Hamid Drake - 2010 - Sharing the Shed [MP3 320]/02 - Delicate Dancer.mp3
/Users/anch/Music/FLAC/Mihaly Dresch, Lafayette Gilchrist, Matyas Szandai, Hamid Drake - 2010 - Sharing the Shed [MP3 V0]/02 - Delicate Dancer.mp3
Track gain : -6.37 dB
Peak : 1.000000
CRC32 hash (test run) : A77EF388
CRC32 hash : A77EF388
CRC32 hash (skip zero) : 20C980AE
AccurateRip v1 signature : 7985E4F5
AccurateRip v2 signature : FC9A67DF
->Track not present in AccurateRip database.
Statistics
Read error : 0
Jitter error (maybe fixed) : 0
Retry sector count : 0
Damaged sector count : 0
Track 03
Filename : /Users/anch/Music/FLAC/Mihaly Dresch, Lafayette Gilchrist, Matyas Szandai, Hamid Drake - 2010 - Sharing the Shed [FLAC]/03 - Le az utcan - Down the Street.flac
/Users/anch/Music/FLAC/Mihaly Dresch, Lafayette Gilchrist, Matyas Szandai, Hamid Drake - 2010 - Sharing the Shed [MP3 320]/03 - Le az utcan - Down the Street.mp3
/Users/anch/Music/FLAC/Mihaly Dresch, Lafayette Gilchrist, Matyas Szandai, Hamid Drake - 2010 - Sharing the Shed [MP3 V0]/03 - Le az utcan - Down the Street.mp3
Track gain : -5.41 dB
Peak : 1.000000
CRC32 hash (test run) : 6DD81930
CRC32 hash : 6DD81930
CRC32 hash (skip zero) : 438095FA
AccurateRip v1 signature : 29D306B6
AccurateRip v2 signature : 0B73A6A2
->Track not present in AccurateRip database.
Statistics
Read error : 0
Jitter error (maybe fixed) : 0
Retry sector count : 0
Damaged sector count : 0
Track 04
Filename : /Users/anch/Music/FLAC/Mihaly Dresch, Lafayette Gilchrist, Matyas Szandai, Hamid Drake - 2010 - Sharing the Shed [FLAC]/04 - Waves.flac
/Users/anch/Music/FLAC/Mihaly Dresch, Lafayette Gilchrist, Matyas Szandai, Hamid Drake - 2010 - Sharing the Shed [MP3 320]/04 - Waves.mp3
/Users/anch/Music/FLAC/Mihaly Dresch, Lafayette Gilchrist, Matyas Szandai, Hamid Drake - 2010 - Sharing the Shed [MP3 V0]/04 - Waves.mp3
Track gain : -5.96 dB
Peak : 1.000000
CRC32 hash (test run) : E269E96F
CRC32 hash : E269E96F
CRC32 hash (skip zero) : 3898628F
AccurateRip v1 signature : D289EC6B
AccurateRip v2 signature : 1F9D077D
->Track not present in AccurateRip database.
Statistics
Read error : 0
Jitter error (maybe fixed) : 0
Retry sector count : 0
Damaged sector count : 0
Track 05
Filename : /Users/anch/Music/FLAC/Mihaly Dresch, Lafayette Gilchrist, Matyas Szandai, Hamid Drake - 2010 - Sharing the Shed [FLAC]/05 - Dried Goods.flac
/Users/anch/Music/FLAC/Mihaly Dresch, Lafayette Gilchrist, Matyas Szandai, Hamid Drake - 2010 - Sharing the Shed [MP3 320]/05 - Dried Goods.mp3
/Users/anch/Music/FLAC/Mihaly Dresch, Lafayette Gilchrist, Matyas Szandai, Hamid Drake - 2010 - Sharing the Shed [MP3 V0]/05 - Dried Goods.mp3
Track gain : -4.64 dB
Peak : 1.000000
CRC32 hash (test run) : E828E094
CRC32 hash : E828E094
CRC32 hash (skip zero) : 23A14C32
AccurateRip v1 signature : B7189B87
AccurateRip v2 signature : 21D8B2EB
->Track not present in AccurateRip database.
Statistics
Read error : 0
Jitter error (maybe fixed) : 0
Retry sector count : 0
Damaged sector count : 0
Track 06
Filename : /Users/anch/Music/FLAC/Mihaly Dresch, Lafayette Gilchrist, Matyas Szandai, Hamid Drake - 2010 - Sharing the Shed [FLAC]/06 - Naiv - Naive.flac
/Users/anch/Music/FLAC/Mihaly Dresch, Lafayette Gilchrist, Matyas Szandai, Hamid Drake - 2010 - Sharing the Shed [MP3 320]/06 - Naiv - Naive.mp3
/Users/anch/Music/FLAC/Mihaly Dresch, Lafayette Gilchrist, Matyas Szandai, Hamid Drake - 2010 - Sharing the Shed [MP3 V0]/06 - Naiv - Naive.mp3
Track gain : -7.12 dB
Peak : 1.000000
CRC32 hash (test run) : 13BAE38B
CRC32 hash : 13BAE38B
CRC32 hash (skip zero) : 2C375827
AccurateRip v1 signature : C9A1DCE9
AccurateRip v2 signature : CD76AFDA
->Track not present in AccurateRip database.
Statistics
Read error : 0
Jitter error (maybe fixed) : 0
Retry sector count : 0
Damaged sector count : 0
Track 07
Filename : /Users/anch/Music/FLAC/Mihaly Dresch, Lafayette Gilchrist, Matyas Szandai, Hamid Drake - 2010 - Sharing the Shed [FLAC]/07 - All in.flac
/Users/anch/Music/FLAC/Mihaly Dresch, Lafayette Gilchrist, Matyas Szandai, Hamid Drake - 2010 - Sharing the Shed [MP3 320]/07 - All in.mp3
/Users/anch/Music/FLAC/Mihaly Dresch, Lafayette Gilchrist, Matyas Szandai, Hamid Drake - 2010 - Sharing the Shed [MP3 V0]/07 - All in.mp3
Track gain : -7.29 dB
Peak : 1.000000
CRC32 hash (test run) : D3645DDD
CRC32 hash : D3645DDD
CRC32 hash (skip zero) : 3F6A8CB4
AccurateRip v1 signature : 4EFB5DE3
AccurateRip v2 signature : DFE6673A
->Track not present in AccurateRip database.
Statistics
Read error : 0
Jitter error (maybe fixed) : 0
Retry sector count : 0
Damaged sector count : 0
Track 08
Filename : /Users/anch/Music/FLAC/Mihaly Dresch, Lafayette Gilchrist, Matyas Szandai, Hamid Drake - 2010 - Sharing the Shed [FLAC]/08 - oreg haz balladaja - Old House Ballad.flac
/Users/anch/Music/FLAC/Mihaly Dresch, Lafayette Gilchrist, Matyas Szandai, Hamid Drake - 2010 - Sharing the Shed [MP3 320]/08 - oreg haz balladaja - Old House Ballad.mp3
/Users/anch/Music/FLAC/Mihaly Dresch, Lafayette Gilchrist, Matyas Szandai, Hamid Drake - 2010 - Sharing the Shed [MP3 V0]/08 - oreg haz balladaja - Old House Ballad.mp3
Track gain : -4.03 dB
Peak : 0.999969
CRC32 hash (test run) : 87D72B14
CRC32 hash : 87D72B14
CRC32 hash (skip zero) : EE2E5D25
AccurateRip v1 signature : 9640DB49
AccurateRip v2 signature : 17549C54
->Track not present in AccurateRip database.
Statistics
Read error : 0
Jitter error (maybe fixed) : 0
Retry sector count : 0
Damaged sector count : 0
Track 09
Filename : /Users/anch/Music/FLAC/Mihaly Dresch, Lafayette Gilchrist, Matyas Szandai, Hamid Drake - 2010 - Sharing the Shed [FLAC]/09 - The Night has a Thousand Eyes.flac
/Users/anch/Music/FLAC/Mihaly Dresch, Lafayette Gilchrist, Matyas Szandai, Hamid Drake - 2010 - Sharing the Shed [MP3 320]/09 - The Night has a Thousand Eyes.mp3
/Users/anch/Music/FLAC/Mihaly Dresch, Lafayette Gilchrist, Matyas Szandai, Hamid Drake - 2010 - Sharing the Shed [MP3 V0]/09 - The Night has a Thousand Eyes.mp3
Track gain : -7.38 dB
Peak : 1.000000
CRC32 hash (test run) : F8A39C98
CRC32 hash : F8A39C98
CRC32 hash (skip zero) : C9F96467
AccurateRip v1 signature : 8B015360
AccurateRip v2 signature : CCE1A454
->Track not present in AccurateRip database.
Statistics
Read error : 0
Jitter error (maybe fixed) : 0
Retry sector count : 0
Damaged sector count : 0
Track 10
Filename : /Users/anch/Music/FLAC/Mihaly Dresch, Lafayette Gilchrist, Matyas Szandai, Hamid Drake - 2010 - Sharing the Shed [FLAC]/10 - Night Spirit.flac
/Users/anch/Music/FLAC/Mihaly Dresch, Lafayette Gilchrist, Matyas Szandai, Hamid Drake - 2010 - Sharing the Shed [MP3 320]/10 - Night Spirit.mp3
/Users/anch/Music/FLAC/Mihaly Dresch, Lafayette Gilchrist, Matyas Szandai, Hamid Drake - 2010 - Sharing the Shed [MP3 V0]/10 - Night Spirit.mp3
Track gain : 0.76 dB
Peak : 0.989075
CRC32 hash (test run) : 579D0272
CRC32 hash : 579D0272
CRC32 hash (skip zero) : CF8158EF
AccurateRip v1 signature : 8D060947
AccurateRip v2 signature : E013632A
->Track not present in AccurateRip database.
Statistics
Read error : 0
Jitter error (maybe fixed) : 0
Retry sector count : 0
Damaged sector count : 0
No errors occurred
End of status report
 
Содержание индексной карты (.CUE)
TITLE "Sharing the Shed"
PERFORMER "Mihály Dresch, Lafayette Gilchrist, Mátyás Szandai, Hamid Drake"
REM GENRE "Jazz"
REM DATE "2010"
REM DISCNUMBER 1
REM TOTALDISCS 1
REM DISCID 9200000A
REM REPLAYGAIN_ALBUM_GAIN -6.32 dB
REM REPLAYGAIN_ALBUM_PEAK 1.000000
FILE "01 - Shift One.flac" WAVE
TRACK 01 AUDIO
TITLE "Shift One"
PERFORMER "Mihály Dresch, Lafayette Gilchrist, Mátyás Szandai, Hamid Drake"
ISRC HUA150817401
REM REPLAYGAIN_TRACK_GAIN -5.32 dB
REM REPLAYGAIN_TRACK_PEAK 1.000000
INDEX 01 00:00:00
FILE "02 - Delicate Dancer.flac" WAVE
TRACK 02 AUDIO
TITLE "Delicate Dancer"
PERFORMER "Mihály Dresch, Lafayette Gilchrist, Mátyás Szandai, Hamid Drake"
ISRC HUA150817402
REM REPLAYGAIN_TRACK_GAIN -6.37 dB
REM REPLAYGAIN_TRACK_PEAK 1.000000
INDEX 01 00:00:00
FILE "03 - Le az utcan - Down the Street.flac" WAVE
TRACK 03 AUDIO
TITLE "Le az utcán / Down the Street"
PERFORMER "Mihály Dresch, Lafayette Gilchrist, Mátyás Szandai, Hamid Drake"
ISRC HUA150817403
REM REPLAYGAIN_TRACK_GAIN -5.41 dB
REM REPLAYGAIN_TRACK_PEAK 1.000000
INDEX 01 00:00:00
FILE "04 - Waves.flac" WAVE
TRACK 04 AUDIO
TITLE "Waves"
PERFORMER "Mihály Dresch, Lafayette Gilchrist, Mátyás Szandai, Hamid Drake"
ISRC HUA150817404
REM REPLAYGAIN_TRACK_GAIN -5.96 dB
REM REPLAYGAIN_TRACK_PEAK 1.000000
INDEX 01 00:00:00
FILE "05 - Dried Goods.flac" WAVE
TRACK 05 AUDIO
TITLE "Dried Goods"
PERFORMER "Mihály Dresch, Lafayette Gilchrist, Mátyás Szandai, Hamid Drake"
ISRC HUA150817405
REM REPLAYGAIN_TRACK_GAIN -4.64 dB
REM REPLAYGAIN_TRACK_PEAK 1.000000
INDEX 01 00:00:00
FILE "06 - Naiv - Naive.flac" WAVE
TRACK 06 AUDIO
TITLE "Naiv / Naive"
PERFORMER "Mihály Dresch, Lafayette Gilchrist, Mátyás Szandai, Hamid Drake"
ISRC HUA150817406
REM REPLAYGAIN_TRACK_GAIN -7.12 dB
REM REPLAYGAIN_TRACK_PEAK 1.000000
INDEX 01 00:00:00
FILE "07 - All in.flac" WAVE
TRACK 07 AUDIO
TITLE "All in"
PERFORMER "Mihály Dresch, Lafayette Gilchrist, Mátyás Szandai, Hamid Drake"
ISRC HUA150817407
REM REPLAYGAIN_TRACK_GAIN -7.29 dB
REM REPLAYGAIN_TRACK_PEAK 1.000000
INDEX 01 00:00:00
FILE "08 - oreg haz balladaja - Old House Ballad.flac" WAVE
TRACK 08 AUDIO
TITLE "Öreg ház balladája / Old House Ballad"
PERFORMER "Mihály Dresch, Lafayette Gilchrist, Mátyás Szandai, Hamid Drake"
ISRC HUA150817408
REM REPLAYGAIN_TRACK_GAIN -4.03 dB
REM REPLAYGAIN_TRACK_PEAK 0.999969
INDEX 01 00:00:00
FILE "09 - The Night has a Thousand Eyes.flac" WAVE
TRACK 09 AUDIO
TITLE "The Night has a Thousand Eyes"
PERFORMER "Mihály Dresch, Lafayette Gilchrist, Mátyás Szandai, Hamid Drake"
ISRC HUA150817409
REM REPLAYGAIN_TRACK_GAIN -7.38 dB
REM REPLAYGAIN_TRACK_PEAK 1.000000
INDEX 01 00:00:00
FILE "10 - Night Spirit.flac" WAVE
TRACK 10 AUDIO
TITLE "Night Spirit"
PERFORMER "Mihály Dresch, Lafayette Gilchrist, Mátyás Szandai, Hamid Drake"
ISRC HUA150817410
REM REPLAYGAIN_TRACK_GAIN 0.76 dB
REM REPLAYGAIN_TRACK_PEAK 0.989075
INDEX 01 00:00:00
 
Об альбоме (сборнике)
Budapest and Baltimore may have more in common than most realize – at least when it comes to improvised music. That`s the message communicated by this compelling CD, featuring Hungary’s most accomplished saxophone stylist and a Maryland based Funk-Jazz pianist. Woodshedding originals and one standard, the high energy front men are aided by a veteran Chicago drummer on call throughout the world and one of the Danube-bisected city`s most dependable bassists.
Hungarian Mihály Dresch, who plays tenor and soprano saxophones plus a fuhunna recorder he developed himself, epitomizes how attributes from Magyar folk heritage can be worked into a modern Jazz concept. He does this both with his own band, often featuring trumpeter/fiddler Ferenc Kovacs, as well as with visitors such as fellow tenor man Archie Shepp. Young pianist Lafayette Gilchrist, the Washington-born, Baltimore-based member of the Black Saint Quartet, headed by another tenor star, David Murray, brings elements of D.C. Go-Go, old school Soul, hard Funk and progressive Hip-hop into his playing here. Meanwhile the quartet’s rhythm section is made up of bassist Mátyás Szandai, part of Dresch’s working group as well as other Hungarian combos; and Hamid Drake who is as likely to show up in Europe backing numerous first-class players as doing likewise on his own Windy City turf.
Distinctive but similar brawny approaches to performance by the principals can be noted by comparing the Gilchrist composed “All In”, with Dresch’s tune, “Old House Ballad”. The latter is a bit of a misnomer since Drake’s accompaniment encompasses stop-time drags, rattles and martial stomps. When the pianist concentrates on feathery key plinks, the composer’s double-tongued overblowing with a thick reed are almost rock-solid in expression. Similarly murky flute or recorder vibrations take up a large portion of “All In”. But on it they’re expressed in the context of rocking piano rhythms. Gilchrist’s low-boil glissandi and harmonized bluesy cadenzas and Drake’s bass drum accents maintain the finger-snapping beat until the final turnaround. Even the coda is divided between heavily pummeled piano keys and a set of flute cadenzas.
Reductionist, since only Drake on hand drum and Dresch on recorder participate, “Night Spirit” also lives up to its title. Together the percussionist’s double-dutch palm whumps and resonations mated with the reedist’s staccato multiphonics suggest a sound picture of two Magyar warriors in repose on the plains expressing themselves through folk melodies.
More attuned to Jazz sensibilities is the pianist’s “Dried Goods” which begins with harpsichord-like plinks from Gilchrist and introductory rim shots from Drake. These set up Dresch’s elaboration of the theme with intense slurs, side-slipping exaggeration and bent notes. Before the pianist’s tremolo variations recap the head, Szandai’s sustained bass string slaps which sluice upwards and downwards in tandem with Drake’s flams, maintain the pace without bringing undue attention to themselves.
This type of musical modesty may be the key to the whole collaborative session. No matter how apocryphally flamboyant Hungarians or Americans may be elsewhere, in this situation they combine their talents selflessly to get the job done.
--Ken Waxman
 
Состав
Dresch Mihály - tenor & soprano saxophones, fuhunna
Lafayette Gilchrist - piano
Szandai Mátyás - bass
Hamid Drake - drums
12:17
400
Нет комментариев. Ваш будет первым!