Поиск

(Ethnic Jazz, Intakt Records) Saadet Turkoz (with Joelle Leandre, Elliott Sharp, Burhan Ocal, Martin Schutz) - Marmara Sea - 2001, FLAC (tracks+.cue), lossless

(Ethnic Jazz, Intakt Records) Saadet Turkoz (with Joelle Leandre, Elliott Sharp, Burhan Ocal, Martin Schutz) - Marmara Sea - 2001, FLAC (tracks+.cue), lossless
Издатель (лейбл):
Saadet Türköz / Marmara Sea
Жанр: Ethnic Jazz, Intakt Records
Страна-производитель диска: Switzerland
Год издания: 2001
Издатель (лейбл): Intakt Records
Номер по каталогу: CD 061
Аудиокодек: FLAC (*.flac)
Тип рипа: tracks+.cue
Битрейт аудио: lossless
Продолжительность: 1:04:22
Источник (релизер): Max Monteiro
Наличие сканов в содержимом раздачи: да
Треклист:
01. Aksam Oldu (Semahat Özdenses / Ahmet Cengizoglu) 2:44
02. Karam (trad.) 2:51
03. Seherde Bir Baga Girdim (trad. / Teslim Abdal) 5:01
04. Hudey (trad. / Pir Sultan Abdal) 4:36
05. Geceler (Saadet Türköz & Burhan Öçal / Saadet Türköz) 6:02
06. Tüsüm (Saadet Türköz & Martin Schütz / Saadet Türköz) 2:38
07. Yasemen (trad.) 5:04
08. Marmara Deryesi (Saadet Türköz & Martin Schütz / Saadet Türköz) 4:19
09. Kelin Keldi (Saadet Türköz & Elliott Sharp) 3:50
10. Sabahtan Ugradim Ben Bir Güzele (trad. / Karacaoglan) 4:13
11. Cay Eli (trad.) 3:03
12. Bulutlar Adam Öldürmesin (Saadet Türköz & Martin Schütz) 5:52
13. Cildizim (Saadet Türköz & Elliott Sharp) 3:36
14. Boyu Bulgan (Saadet Türköz & Martin Schütz / Abay Kunanbay) 2:47
15. Havada Bulut Yok (trad.) 4:21
16. Aman Avci Vurma Beni (trad.) 3:23
Recorded between August 1998 and February 1999 at Schauspielhaus Akademie Zürich.
Saadet Türköz – Voice
Elliott Sharp – Guitar
Joëlle Léandre – Bass
Burhan Öçal – Ud, Saz
Martin Schütz – Electric 5-String Cello
 
Лог создания рипа
Exact Audio Copy V1.0 beta 3 from 29. August 2011
EAC extraction logfile from 3. June 2013, 17:17
Saadet Türköz / Marmara Sea
Used drive : SlimtypeeNAU508 5 Adapter: 1 ID: 0
Read mode : Secure
Utilize accurate stream : Yes
Defeat audio cache : Yes
Make use of C2 pointers : No
Read offset correction : 6
Overread into Lead-In and Lead-Out : No
Fill up missing offset samples with silence : Yes
Delete leading and trailing silent blocks : No
Null samples used in CRC calculations : Yes
Used interface : Native Win32 interface for Win NT & 2000
Gap handling : Appended to previous track
Used output format : User Defined Encoder
Selected bitrate : 768 kBit/s
Quality : High
Add ID3 tag : No
Command line compressor : C:\Program Files (x86)\Exact Audio Copy\Flac\flac.exe
Additional command line options : -8 -V -T "ARTIST=%artist%" -T "TITLE=%title%" -T "ALBUM=%albumtitle%" -T "DATE=%year%" -T "TRACKNUMBER=%tracknr%" -T "GENRE=%genre%" -T "PERFORMER=%albuminterpret%" -T "COMPOSER=%composer%" %haslyrics%--tag-from-file=LYRICS="%lyricsfile%"%haslyrics% -T "ALBUMARTIST=%albumartist%" -T "DISCNUMBER=%cdnumber%" -T "TOTALDISCS=%totalcds%" -T "TOTALTRACKS=%numtracks%" -T "COMMENT=%comment%" %source% -o %dest%
TOC of the extracted CD
Track | Start | Length | Start sector | End sector
---------------------------------------------------------
1 | 0:00.00 | 2:43.65 | 0 | 12289
2 | 2:43.65 | 2:51.15 | 12290 | 25129
3 | 5:35.05 | 5:01.37 | 25130 | 47741
4 | 10:36.42 | 4:36.33 | 47742 | 68474
5 | 15:13.00 | 6:01.60 | 68475 | 95609
6 | 21:14.60 | 2:38.00 | 95610 | 107459
7 | 23:52.60 | 5:03.65 | 107460 | 130249
8 | 28:56.50 | 4:19.00 | 130250 | 149674
9 | 33:15.50 | 3:50.10 | 149675 | 166934
10 | 37:05.60 | 4:13.02 | 166935 | 185911
11 | 41:18.62 | 3:03.13 | 185912 | 199649
12 | 44:22.00 | 5:52.00 | 199650 | 226049
13 | 50:14.00 | 3:36.22 | 226050 | 242271
14 | 53:50.22 | 2:47.28 | 242272 | 254824
15 | 56:37.50 | 4:20.62 | 254825 | 274386
16 | 60:58.37 | 3:23.20 | 274387 | 289631
Track 1
Filename C:\EAC rips\01 - Aksam Oldu.wav
Pre-gap length 0:00:02.00
Peak level 96.4 %
Extraction speed 1.9 X
Track quality 100.0 %
Test CRC 8A51DD56
Copy CRC 8A51DD56
Accurately ripped (confidence 1) [3ECF4698] (AR v1)
Copy OK
Track 2
Filename C:\EAC rips\02 - Karam.wav
Pre-gap length 0:00:02.38
Peak level 95.3 %
Extraction speed 2.1 X
Track quality 100.0 %
Test CRC EA47EA69
Copy CRC EA47EA69
Accurately ripped (confidence 1) [EC50A0BC] (AR v1)
Copy OK
Track 3
Filename C:\EAC rips\03 - Seherde Bir Baga Girdim.wav
Pre-gap length 0:00:03.30
Peak level 98.4 %
Extraction speed 2.5 X
Track quality 100.0 %
Test CRC 2315F121
Copy CRC 2315F121
Accurately ripped (confidence 1) [2631085A] (AR v1)
Copy OK
Track 4
Filename C:\EAC rips\04 - Hudey.wav
Peak level 99.1 %
Extraction speed 2.7 X
Track quality 100.0 %
Test CRC A9FCAAF3
Copy CRC A9FCAAF3
Accurately ripped (confidence 1) [66839784] (AR v1)
Copy OK
Track 5
Filename C:\EAC rips\05 - Geceler.wav
Pre-gap length 0:00:03.28
Peak level 98.5 %
Extraction speed 3.0 X
Track quality 100.0 %
Test CRC 9B74DC30
Copy CRC 9B74DC30
Accurately ripped (confidence 1) [E7AD3A97] (AR v1)
Copy OK
Track 6
Filename C:\EAC rips\06 - Tüsüm.wav
Pre-gap length 0:00:02.06
Peak level 91.9 %
Extraction speed 2.2 X
Track quality 99.9 %
Test CRC B69878FC
Copy CRC B69878FC
Accurately ripped (confidence 1) [B7D01FD7] (AR v1)
Copy OK
Track 7
Filename C:\EAC rips\07 - Yasemen.wav
Pre-gap length 0:00:03.03
Peak level 97.8 %
Extraction speed 3.3 X
Track quality 100.0 %
Test CRC DCE5AB4A
Copy CRC DCE5AB4A
Accurately ripped (confidence 1) [9D717823] (AR v1)
Copy OK
Track 8
Filename C:\EAC rips\08 - Marmara Deryesi.wav
Pre-gap length 0:00:02.65
Peak level 97.5 %
Extraction speed 3.4 X
Track quality 100.0 %
Test CRC A398680F
Copy CRC A398680F
Accurately ripped (confidence 1) [B9D201FA] (AR v1)
Copy OK
Track 9
Filename C:\EAC rips\09 - Kelin Keldi.wav
Pre-gap length 0:00:02.58
Peak level 99.0 %
Extraction speed 3.5 X
Track quality 100.0 %
Test CRC F1599A40
Copy CRC F1599A40
Accurately ripped (confidence 1) [D0AEEED0] (AR v1)
Copy OK
Track 10
Filename C:\EAC rips\10 - Sabahtan Ugradim Ben Bir Güzele.wav
Pre-gap length 0:00:03.10
Peak level 98.5 %
Extraction speed 3.7 X
Track quality 100.0 %
Test CRC D23AEFD7
Copy CRC D23AEFD7
Accurately ripped (confidence 1) [0389B5DD] (AR v1)
Copy OK
Track 11
Filename C:\EAC rips\11 - Cay Eli.wav
Pre-gap length 0:00:03.25
Peak level 99.1 %
Extraction speed 3.6 X
Track quality 100.0 %
Test CRC F153EE23
Copy CRC F153EE23
Accurately ripped (confidence 1) [C3BCABA2] (AR v1)
Copy OK
Track 12
Filename C:\EAC rips\12 - Bulutlar Adam Öldürmesin.wav
Pre-gap length 0:00:02.45
Peak level 95.7 %
Extraction speed 4.1 X
Track quality 100.0 %
Test CRC 8A520B6C
Copy CRC 8A520B6C
Cannot be verified as accurate (confidence 1) [8EB2613D], AccurateRip returned [C75A2318] (AR v2)
Copy OK
Track 13
Filename C:\EAC rips\13 - Cildizim.wav
Pre-gap length 0:00:01.60
Peak level 93.4 %
Extraction speed 4.0 X
Track quality 100.0 %
Test CRC 9EE2511A
Copy CRC 9EE2511A
Accurately ripped (confidence 1) [72FE9680] (AR v1)
Copy OK
Track 14
Filename C:\EAC rips\14 - Boyu Bulgan.wav
Pre-gap length 0:00:01.47
Peak level 99.0 %
Extraction speed 3.9 X
Track quality 100.0 %
Test CRC B2BDCD46
Copy CRC B2BDCD46
Accurately ripped (confidence 1) [1275DAB3] (AR v1)
Copy OK
Track 15
Filename C:\EAC rips\15 - Havada Bulut Yok.wav
Pre-gap length 0:00:01.58
Peak level 98.7 %
Extraction speed 4.3 X
Track quality 100.0 %
Test CRC 1EE885DC
Copy CRC 1EE885DC
Accurately ripped (confidence 1) [11EAB4CB] (AR v1)
Copy OK
Track 16
Filename C:\EAC rips\16 - Aman Avci Vurma Beni.wav
Pre-gap length 0:00:02.52
Peak level 96.3 %
Extraction speed 4.2 X
Track quality 100.0 %
Test CRC 21069B0A
Copy CRC 21069B0A
Accurately ripped (confidence 1) [135D8685] (AR v1)
Copy OK
15 track(s) accurately ripped
1 track(s) could not be verified as accurate
Some tracks could not be verified as accurate
No errors occurred
End of status report
---- CUETools DB Plugin V2.1.4
[CTDB TOCID: b9LtWvwWySCv7GM4nLqIHA70H0Q-] disk not present in database
Submit result: b9LtWvwWySCv7GM4nLqIHA70H0Q- has been uploaded
==== Log checksum 54034038B3C16DCC5AA2B54575992BB2F90E9434049F4F94A852BE900B94E7EF ====
 
Содержание индексной карты (.CUE)
REM GENRE Jazz
REM DATE 2001
REM DISCID EC0F1510
REM COMMENT "ExactAudioCopy v1.0b3"
PERFORMER "Saadet Türköz"
TITLE "Marmara Sea"
FILE "01 - Aksam Oldu.wav" WAVE
TRACK 01 AUDIO
TITLE "Aksam Oldu"
PERFORMER "Saadet Türköz"
INDEX 01 00:00:00
TRACK 02 AUDIO
TITLE "Karam"
PERFORMER "Saadet Türköz"
INDEX 00 02:41:27
FILE "02 - Karam.wav" WAVE
INDEX 01 00:00:00
TRACK 03 AUDIO
TITLE "Seherde Bir Baga Girdim"
PERFORMER "Saadet Türköz"
INDEX 00 02:47:60
FILE "03 - Seherde Bir Baga Girdim.wav" WAVE
INDEX 01 00:00:00
FILE "04 - Hudey.wav" WAVE
TRACK 04 AUDIO
TITLE "Hudey"
PERFORMER "Saadet Türköz"
INDEX 01 00:00:00
TRACK 05 AUDIO
TITLE "Geceler"
PERFORMER "Saadet Türköz"
INDEX 00 04:33:05
FILE "05 - Geceler.wav" WAVE
INDEX 01 00:00:00
TRACK 06 AUDIO
TITLE "Tüsüm"
PERFORMER "Saadet Türköz"
INDEX 00 05:59:54
FILE "06 - Tüsüm.wav" WAVE
INDEX 01 00:00:00
TRACK 07 AUDIO
TITLE "Yasemen"
PERFORMER "Saadet Türköz"
INDEX 00 02:34:72
FILE "07 - Yasemen.wav" WAVE
INDEX 01 00:00:00
TRACK 08 AUDIO
TITLE "Marmara Deryesi"
PERFORMER "Saadet Türköz"
INDEX 00 05:01:00
FILE "08 - Marmara Deryesi.wav" WAVE
INDEX 01 00:00:00
TRACK 09 AUDIO
TITLE "Kelin Keldi"
PERFORMER "Saadet Türköz"
INDEX 00 04:16:17
FILE "09 - Kelin Keldi.wav" WAVE
INDEX 01 00:00:00
TRACK 10 AUDIO
TITLE "Sabahtan Ugradim Ben Bir Güzele"
PERFORMER "Saadet Türköz"
INDEX 00 03:47:00
FILE "10 - Sabahtan Ugradim Ben Bir Güzele.wav" WAVE
INDEX 01 00:00:00
TRACK 11 AUDIO
TITLE "Cay Eli"
PERFORMER "Saadet Türköz"
INDEX 00 04:09:52
FILE "11 - Cay Eli.wav" WAVE
INDEX 01 00:00:00
TRACK 12 AUDIO
TITLE "Bulutlar Adam Öldürmesin"
PERFORMER "Saadet Türköz"
INDEX 00 03:00:43
FILE "12 - Bulutlar Adam Öldürmesin.wav" WAVE
INDEX 01 00:00:00
TRACK 13 AUDIO
TITLE "Cildizim"
PERFORMER "Saadet Türköz"
INDEX 00 05:50:15
FILE "13 - Cildizim.wav" WAVE
INDEX 01 00:00:00
TRACK 14 AUDIO
TITLE "Boyu Bulgan"
PERFORMER "Saadet Türköz"
INDEX 00 03:34:50
FILE "14 - Boyu Bulgan.wav" WAVE
INDEX 01 00:00:00
TRACK 15 AUDIO
TITLE "Havada Bulut Yok"
PERFORMER "Saadet Türköz"
INDEX 00 02:45:45
FILE "15 - Havada Bulut Yok.wav" WAVE
INDEX 01 00:00:00
TRACK 16 AUDIO
TITLE "Aman Avci Vurma Beni"
PERFORMER "Saadet Türköz"
INDEX 00 04:18:10
FILE "16 - Aman Avci Vurma Beni.wav" WAVE
INDEX 01 00:00:00
Доп. информация: Duets with Joëlle Léandre, Elliott Sharp, Burhan Öçal and Martin Schütz.
Recorded between August 1998 and February 1999 at Schauspielhaus Akademie Zürich.
 
Состав
01. Aksam Oldu (arr. Saadet Türköz & Joëlle Léandre)
Saadet Türköz – Voice
Joëlle Léandre – Bass
02. Karam (arr. Saadet Türköz & Martin Schütz)
Saadet Türköz – Voice
Martin Schütz – Cello
03. Seherde Bir Baga Girdim (arr. Saadet Türköz & Elliott Sharp)
Saadet Türköz – Voice
Elliott Sharp – Guitar
04. Hudey (arr. Saadet Türköz & Elliott Sharp)
Saadet Türköz – Voice
Elliott Sharp – Guitar
05. Geceler
Saadet Türköz – Voice
Burhan Öçal – Ud
06. Tüsüm
Saadet Türköz – Voice
Martin Schütz – Cello
07. Yasemen (arr. Saadet Türköz & Elliott Sharp)
Saadet Türköz – Voice
Elliott Sharp – Guitar
08. Marmara Deryesi
Saadet Türköz – Voice
Martin Schütz – Cello
09. Kelin Keldi
Saadet Türköz – Voice
Elliott Sharp – Guitar
10. Sabahtan Ugradim Ben Bir Güzele (arr. Saadet Türköz & Joëlle Léandre)
Saadet Türköz – Voice
Joëlle Léandre – Bass
11. Cay Eli (arr. Saadet Türköz & Burhan Öçal)
Saadet Türköz – Voice
Burhan Öçal – Saz
12. Bulutlar Adam Öldürmesin (arr. Saadet Türköz & Martin Schütz)
Saadet Türköz – Voice
Martin Schütz – Cello
13. Cildizim
Saadet Türköz – Voice
Elliott Sharp – Guitar
14. Boyu Bulgan
Saadet Türköz – Voice
Martin Schütz – Cello
15. Havada Bulut Yok (arr. Saadet Türköz & Joëlle Léandre)
Saadet Türköz – Voice
Joëlle Léandre – Bass
16. Aman Avci Vurma Beni (arr. Saadet Türköz & Burhan Öçal)
Saadet Türköz – Voice
Burhan Öçal – Ud
12:18
367
Нет комментариев. Ваш будет первым!