Вы используете незарегистрированную версию компонента "Вкладки"!

Поиск

(Modern jazz) Avram Fefer - Ritual - 2009, FLAC (tracks+.cue), lossless, EAC

(Modern jazz) Avram Fefer - Ritual - 2009, FLAC (tracks+.cue), lossless, EAC
Треклист:
Avram Fefer - Ritual
Жанр: Modern jazz
Год выпуска диска: 2009
Производитель диска: Cleanfeed
Аудио кодек: FLAC
Тип рипа: tracks+.cue
Битрейт аудио: lossless, EAC
Продолжительность: 01:05:06
Трэклист:
1. Testament 6:17
2. Shepp in Wolves' Clothing 10:28
3. Ritual 6:19
4. Feb. 13th 6:49
5. Blinky Palermo 6:37
6. Club Foot 9:05
7. Ripple 7:34
8. Outspoken 4:52
9. When the Spirit Moves You 7:01
Personnel: Avram Fefer: alto, tenor and soprano saxophones, bass clarinet; Eric Revis: bass; Chad Taylor: drums.
http://www.allaboutjazz.com/php/article.php?id=32949
http://jazzandblues.blogspot.com/2009/05/avram-fefer-ritual-clean-feed-2009.html
http://freejazz-stef.blogspot.com/2009/05/avram-fefer-trio-ritual-clean-feed-2009.html
 
Дщп EAC
Exact Audio Copy V0.99 prebeta 4 from 23. January 2008
Exact Audio Copy V0.99 prebeta 4 from 23. January 2008
EAC extraction logfile from 22. January 2010, 23:02
Unknown Artist / Unknown Title
Used drive : Optiarc DVD RW AD-7200S Adapter: 2 ID: 1
Read mode : Secure
Utilize accurate stream : Yes
Defeat audio cache : Yes
Make use of C2 pointers : No
Read offset correction : 48
Overread into Lead-In and Lead-Out : No
Fill up missing offset samples with silence : Yes
Delete leading and trailing silent blocks : No
Null samples used in CRC calculations : Yes
Used interface : Native Win32 interface for Win NT & 2000
Gap handling : Appended to previous track
Used output format : User Defined Encoder
Selected bitrate : 768 kBit/s
Quality : High
Add ID3 tag : No
Command line compressor : D:\Program Files\FLAC\flac.exe
Additional command line options : -V -8 -T "artist=%a" -T "title=%t" -T "album=%g" -T "date=%y" -T "tracknumber=%n" -T "genre=%m" %s
TOC of the extracted CD
Track | Start | Length | Start sector | End sector
---------------------------------------------------------
1 | 0:00.00 | 6:17.25 | 0 | 28299
2 | 6:17.25 | 10:28.58 | 28300 | 75457
3 | 16:46.08 | 6:19.30 | 75458 | 103912
4 | 23:05.38 | 6:49.18 | 103913 | 134605
5 | 29:54.56 | 6:37.11 | 134606 | 164391
6 | 36:31.67 | 9:06.41 | 164392 | 205382
7 | 45:38.33 | 7:34.13 | 205383 | 239445
8 | 53:12.46 | 4:52.20 | 239446 | 261365
9 | 58:04.66 | 7:01.59 | 261366 | 292999
Track 1
Filename I:\Music\WCD\01. Track01 (Unknown Artist - Unknown Title - ).wav
Pre-gap length 0:00:02.00
Peak level 98.8 %
Track quality 100.0 %
Test CRC 2DA94195
Copy CRC 2DA94195
Track not present in AccurateRip database
Copy OK
Track 2
Filename I:\Music\WCD\02. Track02 (Unknown Artist - Unknown Title - ).wav
Pre-gap length 0:00:00.82
Peak level 98.8 %
Track quality 100.0 %
Test CRC 441A0602
Copy CRC 441A0602
Track not present in AccurateRip database
Copy OK
Track 3
Filename I:\Music\WCD\03. Track03 (Unknown Artist - Unknown Title - ).wav
Pre-gap length 0:00:00.77
Peak level 98.8 %
Track quality 100.0 %
Test CRC 0D74BA71
Copy CRC 0D74BA71
Track not present in AccurateRip database
Copy OK
Track 4
Filename I:\Music\WCD\04. Track04 (Unknown Artist - Unknown Title - ).wav
Pre-gap length 0:00:00.73
Peak level 98.8 %
Track quality 100.0 %
Test CRC D618F539
Copy CRC D618F539
Track not present in AccurateRip database
Copy OK
Track 5
Filename I:\Music\WCD\05. Track05 (Unknown Artist - Unknown Title - ).wav
Pre-gap length 0:00:01.76
Peak level 98.8 %
Track quality 99.9 %
Test CRC DF22CA91
Copy CRC DF22CA91
Track not present in AccurateRip database
Copy OK
Track 6
Filename I:\Music\WCD\06. Track06 (Unknown Artist - Unknown Title - ).wav
Pre-gap length 0:00:01.85
Peak level 98.8 %
Track quality 99.9 %
Test CRC 5A6C45D8
Copy CRC 5A6C45D8
Track not present in AccurateRip database
Copy OK
Track 7
Filename I:\Music\WCD\07. Track07 (Unknown Artist - Unknown Title - ).wav
Pre-gap length 0:00:01.86
Peak level 98.8 %
Track quality 100.0 %
Test CRC 0A0D3211
Copy CRC 0A0D3211
Track not present in AccurateRip database
Copy OK
Track 8
Filename I:\Music\WCD\08. Track08 (Unknown Artist - Unknown Title - ).wav
Pre-gap length 0:00:01.86
Peak level 98.8 %
Track quality 100.0 %
Test CRC 7B7169DF
Copy CRC 7B7169DF
Track not present in AccurateRip database
Copy OK
Track 9
Filename I:\Music\WCD\09. Track09 (Unknown Artist - Unknown Title - ).wav
Peak level 98.8 %
Track quality 100.0 %
Test CRC C622E4C6
Copy CRC C622E4C6
Track not present in AccurateRip database
Copy OK
None of the tracks are present in the AccurateRip database
No errors occurred
End of status report
По всем вопросам пишите личное сообщение пользователю M0p94ok.
18:30
171
Нет комментариев. Ваш будет первым!