Вы используете незарегистрированную версию компонента "Вкладки"!

Поиск

(Free Jazz, Free Improvisation) Hamid Drake, Albert Beger, William Parker - Evolving Silence Vol. 2 - 2006, FLAC (tracks+.cue), lossless

(Free Jazz, Free Improvisation) Hamid Drake, Albert Beger, William Parker - Evolving Silence Vol. 2 - 2006, FLAC (tracks+.cue), lossless
Треклист:
Hamid Drake, Albert Beger, William Parker - Evolving Silence Vol. 2 (2006)
Rock - Made In Israel (Каталог раздач)
Jazz - Made In Israel (Каталог раздач)
Жанр: Free Jazz, Free Improvisation
Страна: Israel
Дата записи: Submarine Studios, Tel Aviv, February 27, 2005
Дата выпуска: August 1, 2006
Производитель диска, номер, страна: Jazz Ear Produstion for EARSAY ES091 © 2006 Albert Beget ® 2006 EARSAY
Аудио кодек: FLAC
Тип рипа: (tracks + .cue)
Битрейт аудио: lossless
Включает: Full artwork
Источник: Моя коллекция
Риппер: Мой рип
Трэклист:
1. Evolvinq Silence
2. Duo #5
7. Funky Laсу
4. Skies of Israel
Music composed by Albert Begger, except 2 which was improvised
Состав:
Hamid Drake - drums & Percussion
Albert Begger - tenor saxophone and alto flute
William Parker - bass
Ссылки:
http://www.allaboutjazz.com/php/article.php?id=22847
http://www.albertbeger.com/
 
Несколько слов на английском - allaboutjazz.com
Evolving Silence, Vol. 2 follows a year after Vol. 1, which documented the first ever meeting in the studio of Israeli sax player Albert Beger and the great rhythm section of William Parker and Hamid Drake. This disc was recorded a day after an unforgettable performance by trumpeter Roy Campbell's Pyramid Trio on which Beger was featured as a guest player, on the same day as the first volume.
Like its predecessor, this album features four different perspectives: three original compositions by Beger and one free improvisation with Beger and Parker. The close musical affinity of the trio's members—and their religious, zen-like, egoless attitude—is still present, marking one of Beger's finest appearances on disc. With Parker and Drake's spiritual, modest playing and their openness and embracing compassion, there is no way but to take off. It's clear that Beger, in his body and soul, was ready for such an opportunity.
The opening track, the thirteen-minute "Evolving Silence," begins with an intense, two-minute duo segment with Parker and Drake, and only then does Beger add his percolating tenor sax and lead the trio through alternating themes. Beger leaves Parker and Drake for short, muscular interplay, and then brings this piece to a safe harbor. "Duo # 3," a free improv duet between Beger's alto flute and Parker bass, begins with Beger talking through his alto flute and ends as kind of a ceremonial tribal duet. "Funk Lacy" is indeed a sweeping rhythmic masterpiece.
The closing "Skies of Israel" is a beautiful and poetic piece that features restrained arco playing by Parker, gentle, crying lines by Beger, and spare and imaginative drumming by Drake—sounding in these painful days like a humble plea for peace and humanism, in the same vein that this great trio explores throughout. Warmly recommended.
 
EAC log
Exact Audio Copy V0.99 prebeta 4 from 23. January 2008
EAC extraction logfile from 9. January 2010, 8:43
Hamid Drake, Albert Beger, William Parker / Evolving Silence Vol. 2
Used drive : HL-DT-STDVD-RAM GH22NP20 Adapter: 0 ID: 0
Read mode : Secure
Utilize accurate stream : Yes
Defeat audio cache : Yes
Make use of C2 pointers : No
Read offset correction : 102
Overread into Lead-In and Lead-Out : No
Fill up missing offset samples with silence : Yes
Delete leading and trailing silent blocks : No
Null samples used in CRC calculations : Yes
Used interface : Installed external ASPI interface
Gap handling : Appended to previous track
Used output format : User Defined Encoder
Selected bitrate : 320 kBit/s
Quality : High
Add ID3 tag : No
Command line compressor : C:\Program Files\Exact Audio Copy\Flac\flac.exe
Additional command line options : -V -8 -T "artist=%a" -T "title=%t" -T "album=%g" -T "date=%y" -T "tracknumber=%n" -T "genre=%m" %s
TOC of the extracted CD
Track | Start | Length | Start sector | End sector
---------------------------------------------------------
1 | 0:00.00 | 13:14.59 | 0 | 59608
2 | 13:14.59 | 8:09.72 | 59609 | 96355
3 | 21:24.56 | 6:22.24 | 96356 | 125029
4 | 27:47.05 | 12:35.06 | 125030 | 181660
Track 1
Filename D:\music\Musicgate's rips\Hamid Drake, Albert Beger, William Parker - Evolving Silence Vol. 2 (2006)\01 - Evolving Silence.wav
Pre-gap length 0:00:02.00
Peak level 100.0 %
Track quality 100.0 %
Test CRC 6928CC86
Copy CRC 6928CC86
Track not present in AccurateRip database
Copy OK
Track 2
Filename D:\music\Musicgate's rips\Hamid Drake, Albert Beger, William Parker - Evolving Silence Vol. 2 (2006)\02 - Duo # 3.wav
Pre-gap length 0:00:02.00
Peak level 98.5 %
Track quality 100.0 %
Test CRC 5FA8EE0D
Copy CRC 5FA8EE0D
Track not present in AccurateRip database
Copy OK
Track 3
Filename D:\music\Musicgate's rips\Hamid Drake, Albert Beger, William Parker - Evolving Silence Vol. 2 (2006)\03 - Funky Lacy.wav
Pre-gap length 0:00:02.00
Peak level 100.0 %
Track quality 100.0 %
Test CRC 85CFC1DD
Copy CRC 85CFC1DD
Track not present in AccurateRip database
Copy OK
Track 4
Filename D:\music\Musicgate's rips\Hamid Drake, Albert Beger, William Parker - Evolving Silence Vol. 2 (2006)\04 - Skies of Israel.wav
Pre-gap length 0:00:02.00
Peak level 100.0 %
Track quality 100.0 %
Test CRC B8D001F0
Copy CRC B8D001F0
Track not present in AccurateRip database
Copy OK
None of the tracks are present in the AccurateRip database
No errors occurred
End of status report
 
Tau analizer screenshoot
Я не сидирую все свои раздачи подолгу, только новые (до 3х первых сидов)
Предлагаю скачавшим максимально долго оставаться на раздаче - весь рейтинг будет ваш
За своими раздачами не слежу, и старые топики не читаю - если нет сидов или раздача находится в архиве, пришлите письмо, и я вернусь
По всем вопросам пишите личное сообщение пользователю M0p94ok.
18:30
142
Нет комментариев. Ваш будет первым!