Вы используете незарегистрированную версию компонента "Вкладки"!

Поиск

(Modern Free, Tzadik) Wadada Leo Smith - Luminous Axis (The Caravans Of Winter And Summer) - 2002, FLAC (tracks+.cue), lossless

(Modern Free, Tzadik) Wadada Leo Smith - Luminous Axis (The Caravans Of Winter And Summer) - 2002, FLAC (tracks+.cue), lossless
Треклист:
Wadada Leo Smith - Luminous Axis (The Caravans Of Winter And Summer)
Жанр: Modern Free, Tzadik
Год выпуска диска: 2002
Производитель диска: US
Аудио кодек: FLAC
Тип рипа: tracks+.cue
Битрейт аудио: lossless
Продолжительность: 55:13
Трэклист:
1. Garden Of The Heart
2. Perfect Essence
3. Radiant Light Gushing From The Sun
4. Night Splendor, A Certain Moon Flow
5. Tango
6. Beauty
7. Fountain (Immortality)
8. Garden Of The Soul
9. Apples, Dates And Pomegranates
10. Light, Ginger, Olives And Musk
11. Harp: A Gleaming Sama
12. Fountain (Lore)
13. Caravans Of Winter And Summer
14. Camphor
15. The Traveler
John Bischoff: Computer-driven Electronics
Chris Brown: Computer-driven Electronics
Ikue Mori: Computer-driven Electronics
Tim Perkis: Computer-driven Electronics
Wadada Leo Smith: Trumpet And Fugelhorn With Electronics
Mark Trayle: Computer-driven Electronics
William Winant: Percussion
Доп. информация:
 
EAC log
Exact Audio Copy V0.99 prebeta 5 from 4. May 2009
Отчёт EAC об извлечении, выполненном 14. июня 2009, 13:57
Wadada Leo Smith / Luminous Axis
Дисковод: Optiarc DVD RW AD-7170S Adapter: 5 ID: 0
Режим чтения : Достоверность
Использование точного потока : Да
Отключение кэша аудио : Да
Использование указателей C2 : Нет
Коррекция смещения при чтении : 48
Способность читать области Lead-in и Lead-out : Нет
Заполнение пропущенных сэмплов тишиной : Да
Удаление блоков с тишиной в начале и конце : Нет
При вычислениях CRC использовались нулевые сэмплы : Да
Интерфейс : Установленный внешний ASPI-интерфейс
Обработка зазоров : Добавлено к предыдущему треку
Выходной формат : Внутренние WAV-операции
Формат сэмплов : 44.100 Гц; 16 бит; стерео
TOC извлечённого CD
Трек | Старт | Длительность | Начальный сектор | Конечный сектор
---------------------------------------------------------------------
1 | 0:00.00 | 5:19.50 | 0 | 23974
2 | 5:19.50 | 0:33.07 | 23975 | 26456
3 | 5:52.57 | 2:37.11 | 26457 | 38242
4 | 8:29.68 | 1:27.02 | 38243 | 44769
5 | 9:56.70 | 0:46.71 | 44770 | 48290
6 | 10:43.66 | 0:18.65 | 48291 | 49705
7 | 11:02.56 | 4:30.46 | 49706 | 70001
8 | 15:33.27 | 3:52.18 | 70002 | 87419
9 | 19:25.45 | 1:29.20 | 87420 | 94114
10 | 20:54.65 | 2:36.56 | 94115 | 105870
11 | 23:31.46 | 2:20.66 | 105871 | 116436
12 | 25:52.37 | 5:10.18 | 116437 | 139704
13 | 31:02.55 | 3:53.63 | 139705 | 157242
14 | 34:56.43 | 15:16.42 | 157243 | 225984
15 | 50:13.10 | 4:58.13 | 225985 | 248347
Трек 1
Имя файла I:\New Jazz, Improv, Anantgarde\Wadada Leo Smith - Luminous Axis\01. Garden of the Heart.wav
Пиковый уровень 98.8 %
Качество трека 100.0 %
CRC копии 3AA2EE90
Копирование... OK
Трек 2
Имя файла I:\New Jazz, Improv, Anantgarde\Wadada Leo Smith - Luminous Axis\02. Perfect Essence.wav
Пиковый уровень 98.8 %
Качество трека 100.0 %
CRC копии 3CB78ABD
Копирование... OK
Трек 3
Имя файла I:\New Jazz, Improv, Anantgarde\Wadada Leo Smith - Luminous Axis\03. Radiant Light Gushing From the Sun.wav
Пиковый уровень 98.8 %
Качество трека 100.0 %
CRC копии 96320D26
Копирование... OK
Трек 4
Имя файла I:\New Jazz, Improv, Anantgarde\Wadada Leo Smith - Luminous Axis\04. Night Splendor, A Certain Moon Flow.wav
Пиковый уровень 98.8 %
Качество трека 100.0 %
CRC копии 58B0614B
Копирование... OK
Трек 5
Имя файла I:\New Jazz, Improv, Anantgarde\Wadada Leo Smith - Luminous Axis\05. Tango.wav
Пиковый уровень 98.8 %
Качество трека 100.0 %
CRC копии D9706489
Копирование... OK
Трек 6
Имя файла I:\New Jazz, Improv, Anantgarde\Wadada Leo Smith - Luminous Axis\06. Beauty.wav
Пиковый уровень 98.8 %
Качество трека 100.0 %
CRC копии A04CDC0E
Копирование... OK
Трек 7
Имя файла I:\New Jazz, Improv, Anantgarde\Wadada Leo Smith - Luminous Axis\07. Fountain (Immortality).wav
Пиковый уровень 98.8 %
Качество трека 99.9 %
CRC копии C8794703
Копирование... OK
Трек 8
Имя файла I:\New Jazz, Improv, Anantgarde\Wadada Leo Smith - Luminous Axis\08. Garden of the Soul.wav
Пиковый уровень 96.6 %
Качество трека 100.0 %
CRC копии 06E71570
Копирование... OK
Трек 9
Имя файла I:\New Jazz, Improv, Anantgarde\Wadada Leo Smith - Luminous Axis\09. Apples, Dates, and Pommegranates.wav
Пиковый уровень 98.8 %
Качество трека 100.0 %
CRC копии C6B7DE83
Копирование... OK
Трек 10
Имя файла I:\New Jazz, Improv, Anantgarde\Wadada Leo Smith - Luminous Axis\10. Light, Ginger, Olives, and Musk.wav
Пиковый уровень 98.8 %
Качество трека 99.9 %
CRC копии 2079D018
Копирование... OK
Трек 11
Имя файла I:\New Jazz, Improv, Anantgarde\Wadada Leo Smith - Luminous Axis\11. Harp, a Gleaming Sama.wav
Пиковый уровень 98.8 %
Качество трека 100.0 %
CRC копии B3165EAF
Копирование... OK
Трек 12
Имя файла I:\New Jazz, Improv, Anantgarde\Wadada Leo Smith - Luminous Axis\12. Fountain (Lore).wav
Пиковый уровень 98.8 %
Качество трека 100.0 %
CRC копии 033F8005
Копирование... OK
Трек 13
Имя файла I:\New Jazz, Improv, Anantgarde\Wadada Leo Smith - Luminous Axis\13. Camphor.wav
Пиковый уровень 98.8 %
Качество трека 100.0 %
CRC копии DF42FBEA
Копирование... OK
Трек 14
Имя файла I:\New Jazz, Improv, Anantgarde\Wadada Leo Smith - Luminous Axis\14. Caravans of Winter and Summer.wav
Пиковый уровень 98.8 %
Качество трека 100.0 %
CRC копии 0A07C041
Копирование... OK
Трек 15
Имя файла I:\New Jazz, Improv, Anantgarde\Wadada Leo Smith - Luminous Axis\15. The Traveler.wav
Пиковый уровень 98.8 %
Качество трека 100.0 %
CRC копии 3C423075
Копирование... OK
Ошибок не произошло
Конец отчёта
 
Tzadik
A relentless musical innovator since his early days in the Chicago AACM, Wadada Leo Smith is one of the most consistently creative composer/performers in new music. In his sixth Tzadik release he once again explores new territory, bringing six absolute masters of live electronics together to perform some of Wadada's most adventurous and colorful compositions. Including a large, sprawling work for four laptops and trumpet, and two dynamic duets with legendary laptop pioneer Ikue Mori, Luminous Axis is one of Wadada's most exciting and dynamic recordings.
Any questions -> support@pro-jazz.com. По всем вопросам пишите -> support@pro-jazz.com
13:09
147
Нет комментариев. Ваш будет первым!