Вы используете незарегистрированную версию компонента "Вкладки"!

Поиск

(Avant-Garde) Wadada Leo Smith's Golden Quartet - The Year Of The Elephant - 2002, FLAC (tracks+.cue), lossless

(Avant-Garde) Wadada Leo Smith's Golden Quartet - The Year Of The Elephant - 2002, FLAC (tracks+.cue), lossless
Треклист:
Wadada Leo Smith's Golden Quartet - The Year Of The Elephant
Жанр: Avant-Garde
Год выпуска диска: 2002
Производитель диска: US [Pi Recordings]
Аудио кодек: FLAC
Тип рипа: tracks+.cue
Битрейт аудио: lossless
Продолжительность: 60:33
Трэклист:
1 Al-madinah (10:01)
2 Piru (10:51)
3 The Zamzam Well A Stream Of A Pure Light (8:56)
4 Kangaroo's Hollow (7:06)
5 The Year Of The Elephant (9:19)
6 Miles Star In 3 Parts (14:17)
I-II) Star / Seed
III) Blue Fire
Bass - Malachi Favors Maghostut
Drums, Synthesizer - Jack DeJohnette
Piano, Synthesizer - Anthony Davis
Trumpet, Flugelhorn, Composed By - Wadada Leo Smith
Recorded 18,19 April 2002 at MRS Recording Studio, Catskill, NY.
Доп. информация:
 
EAC log
Exact Audio Copy V0.99 prebeta 3 from 28. July 2007
EAC extraction logfile from 13. May 2009, 4:57
Wadada Leo Smith's Golden Quartet / The Year of the Elephant
Used drive : Optiarc BD ROM BC-5500S Adapter: 0 ID: 1
Read mode : Secure
Utilize accurate stream : Yes
Defeat audio cache : Yes
Make use of C2 pointers : No
Read offset correction : 48
Overread into Lead-In and Lead-Out : No
Fill up missing offset samples with silence : Yes
Delete leading and trailing silent blocks : No
Null samples used in CRC calculations : Yes
Used interface : Native Win32 interface for Win NT & 2000
Gap handling : Appended to previous track
Used output format : User Defined Encoder
Selected bitrate : 768 kBit/s
Quality : High
Add ID3 tag : No
Command line compressor : C:\Program Files (x86)\Exact Audio Copy\FLAC\FLAC.EXE
Additional command line options : -V -8 -T "artist=%a" -T "title=%t" -T "album=%g" -T "date=%y" -T "tracknumber=%n" -T "genre=%m" %s
TOC of the extracted CD
Track | Start | Length | Start sector | End sector
---------------------------------------------------------
1 | 0:00.00 | 10:01.69 | 0 | 45143
2 | 10:01.69 | 10:51.74 | 45144 | 94042
3 | 20:53.68 | 8:56.45 | 94043 | 134287
4 | 29:50.38 | 7:06.06 | 134288 | 166243
5 | 36:56.44 | 9:19.14 | 166244 | 208182
6 | 46:15.58 | 14:17.15 | 208183 | 272472
Track 1
Filename C:\Music\Wadada Leo Smith's Golden Quartet - 2002 - The Year of the Elephant\01 - Al-Madinah.wav
Pre-gap length 0:00:02.00
Peak level 98.8 %
Track quality 100.0 %
Test CRC 6C7A275F
Copy CRC 6C7A275F
Accurately ripped (confidence 2) [61850C7C]
Copy OK
Track 2
Filename C:\Music\Wadada Leo Smith's Golden Quartet - 2002 - The Year of the Elephant\02 - Piru.wav
Peak level 98.8 %
Track quality 100.0 %
Test CRC 7B6965A4
Copy CRC 7B6965A4
Accurately ripped (confidence 2) [C6E7052D]
Copy OK
Track 3
Filename C:\Music\Wadada Leo Smith's Golden Quartet - 2002 - The Year of the Elephant\03 - The Zamzam Well a Stream of a Pure Light.wav
Peak level 98.8 %
Track quality 99.9 %
Test CRC DE6CF118
Copy CRC DE6CF118
Accurately ripped (confidence 2) [29B58E9B]
Copy OK
Track 4
Filename C:\Music\Wadada Leo Smith's Golden Quartet - 2002 - The Year of the Elephant\04 - Kangaroo's Hollow.wav
Peak level 98.8 %
Track quality 100.0 %
Test CRC 58EE9AE9
Copy CRC 58EE9AE9
Accurately ripped (confidence 2) [C4622BB8]
Copy OK
Track 5
Filename C:\Music\Wadada Leo Smith's Golden Quartet - 2002 - The Year of the Elephant\05 - The Year of the Elephant.wav
Peak level 98.8 %
Track quality 99.9 %
Test CRC 7FAAD034
Copy CRC 7FAAD034
Accurately ripped (confidence 2) [321AEB1E]
Copy OK
Track 6
Filename C:\Music\Wadada Leo Smith's Golden Quartet - 2002 - The Year of the Elephant\06 - Miles Star in 3 parts- I-II) Star,Seed, III) Blue Fire.wav
Peak level 98.8 %
Track quality 100.0 %
Test CRC 072C012A
Copy CRC 072C012A
Accurately ripped (confidence 2) [D8697871]
Copy OK
All tracks accurately ripped
No errors occurred
End of status report
Any questions -> support@pro-jazz.com. По всем вопросам пишите -> support@pro-jazz.com
13:08
166
Нет комментариев. Ваш будет первым!