Вы используете незарегистрированную версию компонента "Вкладки"!

Поиск

(Modern Free, Avant-Garde) [CD] Mickey Finn & Cuong Vu - Gagarin! - 2009, FLAC (tracks+.cue), lossless

(Modern Free, Avant-Garde) [CD] Mickey Finn & Cuong Vu - Gagarin! - 2009, FLAC (tracks+.cue), lossless
Треклист:
MICKEY FINN & CUONG VU / Gagarin!
Жанр: Modern Free, Avant-Garde
Носитель: CD
Страна-производитель диска (релиза): Italy
Год издания: 2009
Издатель (лейбл): El Gallo Rojo
Номер по каталогу: 314-24
Аудиокодек: FLAC (*.flac)
Тип рипа: tracks+.cue
Битрейт аудио: lossless
Продолжительность: 01:00:07
Источник: свой диск
Наличие сканов в содержимом раздачи: да
Треклист:
01. The Lady Is A Trans 12:28
02. Again Again 02:57
03. Serpente 07:52
04. I Met Einstein In A Dream (For Allen Ginsberg) 03:52
05. Land Mine 07:48
06. Gian Maria Volonte 04:21
07. I Can´t Feel It Anymore 07:37
08. Jean Gabin 03:39
09. And Again 03:13
10. Amy 06:21
Состав:
Acoustic Bass, Guitar, Bass [12 Strings], Double Bass – Danilo Gallo
Drums, Percussion – Zeno De Rossi
Electric Piano [Rhodes], Piano – Giorgio Pacorig
Guitar [Guitars], Performer [Podophono] – Enrico Terragnoli
Trumpet, Effects [Fx] – Cuong Vu
 
Об альбоме
Цитата:
С первых секунд первой композиции понимаеш, что-то в ракете не работает, барахлит и она никак не заводится! Немножко прогазовки, первая, вторая...пятая передача...поехали...полетели!!!
vostri tryby
 
Лог создания рипа
Exact Audio Copy V1.0 beta 3 from 29. August 2011
Отчёт EAC об извлечении, выполненном 23. мая 2015, 20:43
Mickey Finn + Cuong Vu / Gagarin!
Дисковод: hp DVD A DH16ABSH Adapter: 0 ID: 1
Режим чтения : Достоверность
Использование точного потока : Да
Отключение кэша аудио : Да
Использование указателей C2 : Нет
Коррекция смещения при чтении : 6
Способность читать области Lead-in и Lead-out : Нет
Заполнение пропущенных сэмплов тишиной : Да
Удаление блоков с тишиной в начале и конце : Нет
При вычислениях CRC использовались нулевые сэмплы : Да
Интерфейс : Встроенный Win32-интерфейс для Win NT/2000
Обработка зазоров : Добавлено к предыдущему треку
Выходной формат : Пользовательский кодировщик
Выбранный битрейт : 128 kBit/s
Качество : Высокий
Добавление ID3-тега : Нет
Утилита сжатия : F:\Exact Audio Copy\Flac\flac.exe
Дополнительные параметры : -6 -V -T "ARTIST=%artist%" -T "TITLE=%title%" -T "ALBUM=%albumtitle%" -T "DATE=%year%" -T "TRACKNUMBER=%tracknr%" -T "GENRE=%genre%" -T "COMMENT=%comment%" -T "BAND=%albuminterpret%" -T "ALBUMARTIST=%albuminterpret%" -T "COMPOSER=%composer%" %haslyrics%--tag-from-file=LYRICS="%lyricsfile%"%haslyrics% -T "DISCNUMBER=%cdnumber%" -T "TOTALDISCS=%totalcds%" -T "TOTALTRACKS=%numtracks%" %hascover%--picture="%coverfile%"%hascover% %source% -o %dest%
TOC извлечённого CD
Трек | Старт | Длительность | Начальный сектор | Конечный сектор
---------------------------------------------------------------------
1 | 0:00.00 | 12:28.27 | 0 | 56126
2 | 12:28.27 | 2:56.61 | 56127 | 69387
3 | 15:25.13 | 7:51.68 | 69388 | 104780
4 | 23:17.06 | 3:51.48 | 104781 | 122153
5 | 27:08.54 | 7:48.09 | 122154 | 157262
6 | 34:56.63 | 4:20.53 | 157263 | 176815
7 | 39:17.41 | 7:37.01 | 176816 | 211091
8 | 46:54.42 | 3:39.04 | 211092 | 227520
9 | 50:33.46 | 3:13.17 | 227521 | 242012
10 | 53:46.63 | 6:21.28 | 242013 | 270615
Трек 1
Имя файла E:\Не УДАЛЯТЬ!!!\Рабочий стол\Mickey Finn & Cuong Vu - Gagarin! - 2009\01. The Lady Is A Trans.wav
Длина предзазора 0:00:02.00
Пиковый уровень 98.8 %
Скорость извлечения 5.2 X
Качество трека 100.0 %
CRC теста EC31715B
CRC копии EC31715B
Копирование... OK
Трек 2
Имя файла E:\Не УДАЛЯТЬ!!!\Рабочий стол\Mickey Finn & Cuong Vu - Gagarin! - 2009\02. Again Again.wav
Пиковый уровень 98.8 %
Скорость извлечения 5.3 X
Качество трека 100.0 %
CRC теста CFF7D332
CRC копии CFF7D332
Копирование... OK
Трек 3
Имя файла E:\Не УДАЛЯТЬ!!!\Рабочий стол\Mickey Finn & Cuong Vu - Gagarin! - 2009\03. Serpente.wav
Пиковый уровень 98.8 %
Скорость извлечения 6.5 X
Качество трека 100.0 %
CRC теста F13BFC9A
CRC копии F13BFC9A
Копирование... OK
Трек 4
Имя файла E:\Не УДАЛЯТЬ!!!\Рабочий стол\Mickey Finn & Cuong Vu - Gagarin! - 2009\04. I Met Einstein In A Dream (For Allen Ginsberg).wav
Пиковый уровень 98.8 %
Скорость извлечения 6.5 X
Качество трека 100.0 %
CRC теста FB379C33
CRC копии FB379C33
Копирование... OK
Трек 5
Имя файла E:\Не УДАЛЯТЬ!!!\Рабочий стол\Mickey Finn & Cuong Vu - Gagarin! - 2009\05. Land Mine.wav
Пиковый уровень 98.8 %
Скорость извлечения 6.9 X
Качество трека 99.9 %
CRC теста 673F53F3
CRC копии 673F53F3
Копирование... OK
Трек 6
Имя файла E:\Не УДАЛЯТЬ!!!\Рабочий стол\Mickey Finn & Cuong Vu - Gagarin! - 2009\06. Gian Maria Volonte.wav
Пиковый уровень 98.8 %
Скорость извлечения 7.4 X
Качество трека 100.0 %
CRC теста 0AD38752
CRC копии 0AD38752
Копирование... OK
Трек 7
Имя файла E:\Не УДАЛЯТЬ!!!\Рабочий стол\Mickey Finn & Cuong Vu - Gagarin! - 2009\07. I Can´t Feel It Anymore.wav
Пиковый уровень 98.8 %
Скорость извлечения 8.3 X
Качество трека 100.0 %
CRC теста 63C40B30
CRC копии 63C40B30
Копирование... OK
Трек 8
Имя файла E:\Не УДАЛЯТЬ!!!\Рабочий стол\Mickey Finn & Cuong Vu - Gagarin! - 2009\08. Jean Gabin.wav
Пиковый уровень 98.8 %
Скорость извлечения 8.1 X
Качество трека 100.0 %
CRC теста 45F52DC1
CRC копии 45F52DC1
Копирование... OK
Трек 9
Имя файла E:\Не УДАЛЯТЬ!!!\Рабочий стол\Mickey Finn & Cuong Vu - Gagarin! - 2009\09. And Again.wav
Пиковый уровень 98.8 %
Скорость извлечения 6.8 X
Качество трека 99.9 %
CRC теста 7DC9142D
CRC копии 7DC9142D
Копирование... OK
Трек 10
Имя файла E:\Не УДАЛЯТЬ!!!\Рабочий стол\Mickey Finn & Cuong Vu - Gagarin! - 2009\10. Amy.wav
Пиковый уровень 98.8 %
Скорость извлечения 8.4 X
Качество трека 99.9 %
CRC теста 9774BA70
CRC копии 9774BA70
Копирование... OK
Ошибок не произошло
Конец отчёта
==== Контрольная сумма отчёта 117B9FF1CF3D6777664C5B286EB708E945A91F787C0AD4B934982580F3F9BEB2 ====
 
Содержание индексной карты (.CUE)
REM GENRE Jazz
REM DATE 2009
REM DISCID 910E180A
REM COMMENT "ExactAudioCopy v1.0b3"
PERFORMER "Mickey Finn + Cuong Vu"
TITLE "Gagarin!"
FILE "01. The Lady Is A Trans.wav" WAVE
TRACK 01 AUDIO
TITLE "The Lady Is A Trans"
PERFORMER "Mickey Finn + Cuong Vu"
INDEX 01 00:00:00
FILE "02. Again Again.wav" WAVE
TRACK 02 AUDIO
TITLE "Again Again"
PERFORMER "Mickey Finn + Cuong Vu"
INDEX 01 00:00:00
FILE "03. Serpente.wav" WAVE
TRACK 03 AUDIO
TITLE "Serpente"
PERFORMER "Mickey Finn + Cuong Vu"
INDEX 01 00:00:00
FILE "04. I Met Einstein In A Dream (For Allen Ginsberg).wav" WAVE
TRACK 04 AUDIO
TITLE "I Met Einstein In A Dream (For Allen Ginsberg)"
PERFORMER "Mickey Finn + Cuong Vu"
INDEX 01 00:00:00
FILE "05. Land Mine.wav" WAVE
TRACK 05 AUDIO
TITLE "Land Mine"
PERFORMER "Mickey Finn + Cuong Vu"
INDEX 01 00:00:00
FILE "06. Gian Maria Volonte.wav" WAVE
TRACK 06 AUDIO
TITLE "Gian Maria Volonte"
PERFORMER "Mickey Finn + Cuong Vu"
INDEX 01 00:00:00
FILE "07. I Can't Feel It Anymore.wav" WAVE
TRACK 07 AUDIO
TITLE "I Can't Feel It Anymore"
PERFORMER "Mickey Finn + Cuong Vu"
INDEX 01 00:00:00
FILE "08. Jean Gabin.wav" WAVE
TRACK 08 AUDIO
TITLE "Jean Gabin"
PERFORMER "Mickey Finn + Cuong Vu"
INDEX 01 00:00:00
FILE "09. And Again.wav" WAVE
TRACK 09 AUDIO
TITLE "And Again"
PERFORMER "Mickey Finn + Cuong Vu"
INDEX 01 00:00:00
FILE "10. Amy.wav" WAVE
TRACK 10 AUDIO
TITLE "Amy"
PERFORMER "Mickey Finn + Cuong Vu"
INDEX 01 00:00:00
По всем вопросам пишите личное сообщение пользователю M0p94ok.
13:33
185
Нет комментариев. Ваш будет первым!