Вы используете незарегистрированную версию компонента "Вкладки"!

Поиск

(Contemporary Jazz, Avant-Garde Jazz) Cuong Vu - Pure - 2000, FLAC (tracks+.cue), lossless

(Contemporary Jazz, Avant-Garde Jazz) Cuong Vu - Pure - 2000, FLAC (tracks+.cue), lossless
Треклист:
Cuong Vu / Pure
Жанр: Contemporary Jazz, Avant-Garde Jazz
Страна-производитель диска (релиза): Russia
Год издания: 2000
Страна исполнителя (группы): USA (Vietnam)
Аудиокодек: FLAC (*.flac)
Тип рипа: tracks+.cue
Битрейт аудио: lossless
Продолжительность: 1:06:54.
Источник (релизер): clustert
Наличие сканов в содержимом раздачи: да
Треклист:
01. Faith [0:10:37.10]
02. Vina, All Grown Up [0:11:52.11]
03. Pitter-Patter [0:08:26.54]
04. Child-Like [0:09:58.33]
05. I Shall Never Come Back [0:17:35.59]
06. Pure [0:08:24.42]
 
Лог создания рипа
Exact Audio Copy V1.0 beta 3 from 29. August 2011
Отчёт EAC об извлечении, выполненном 22. мая 2015, 20:05
Cuong Vu / Pure
Дисковод: ASUS DRW-1814BLT Adapter: 4 ID: 0
Режим чтения : Достоверность
Использование точного потока : Да
Отключение кэша аудио : Да
Использование указателей C2 : Нет
Коррекция смещения при чтении : 6
Способность читать области Lead-in и Lead-out : Нет
Заполнение пропущенных сэмплов тишиной : Да
Удаление блоков с тишиной в начале и конце : Нет
При вычислениях CRC использовались нулевые сэмплы : Да
Интерфейс : Встроенный Win32-интерфейс для Win NT/2000
Обработка зазоров : Добавлено к предыдущему треку
Выходной формат : Пользовательский кодировщик
Выбранный битрейт : 128 kBit/s
Качество : Высокий
Добавление ID3-тега : Нет
Утилита сжатия : C:\Program Files\Exact Audio Copy\Flac\flac.exe
Дополнительные параметры : -V -8 -T "Genre=%genre%" -T "Artist=%artist%" -T "Title=%title%" -T "Album=%albumtitle%" -T "Date=%year%" -T "Tracknumber=%tracknr%" -T "Comment=EAC1.0b2 FLAC -8" %source%
TOC извлечённого CD
Трек | Старт | Длительность | Начальный сектор | Конечный сектор
---------------------------------------------------------------------
1 | 0:00.00 | 10:37.10 | 0 | 47784
2 | 10:37.10 | 11:52.11 | 47785 | 101195
3 | 22:29.21 | 8:26.54 | 101196 | 139199
4 | 30:56.00 | 9:58.33 | 139200 | 184082
5 | 40:54.33 | 17:35.59 | 184083 | 263266
6 | 58:30.17 | 8:24.42 | 263267 | 301108
Трек 1
Имя файла R:\Раздача 46\Cuong Vu - 2002 - Pure\01 Faith.wav
Длина предзазора 0:00:02.00
Пиковый уровень 96.6 %
Скорость извлечения 4.2 X
Качество трека 99.9 %
CRC теста 4B335F60
CRC копии 4B335F60
Точность не определена (достоверность 2) [2C647A98], AccurateRip вернул [DDF880D2] (AR v2)
Копирование... OK
Трек 2
Имя файла R:\Раздача 46\Cuong Vu - 2002 - Pure\02 Vina, All Grown Up.wav
Пиковый уровень 96.6 %
Скорость извлечения 5.2 X
Качество трека 99.9 %
CRC теста 3357FBFE
CRC копии 3357FBFE
Точность не определена (достоверность 2) [A94CC9F3], AccurateRip вернул [4447550E] (AR v2)
Копирование... OK
Трек 3
Имя файла R:\Раздача 46\Cuong Vu - 2002 - Pure\03 Pitter-Patter.wav
Пиковый уровень 96.6 %
Скорость извлечения 6.1 X
Качество трека 100.0 %
CRC теста 86BED281
CRC копии 86BED281
Точность не определена (достоверность 2) [6632E780], AccurateRip вернул [76793E57] (AR v2)
Копирование... OK
Трек 4
Имя файла R:\Раздача 46\Cuong Vu - 2002 - Pure\04 Child-Like.wav
Пиковый уровень 96.6 %
Скорость извлечения 6.7 X
Качество трека 100.0 %
CRC теста 3E6BA80C
CRC копии 3E6BA80C
Точность не определена (достоверность 2) [D251EC39], AccurateRip вернул [DE295683] (AR v2)
Копирование... OK
Трек 5
Имя файла R:\Раздача 46\Cuong Vu - 2002 - Pure\05 I Shall Never Come Back.wav
Пиковый уровень 96.6 %
Скорость извлечения 9.5 X
Качество трека 100.0 %
CRC теста B46A6FCC
CRC копии B46A6FCC
Точность не определена (достоверность 2) [E16225CC], AccurateRip вернул [7EE2700D] (AR v2)
Копирование... OK
Трек 6
Имя файла R:\Раздача 46\Cuong Vu - 2002 - Pure\06 Pure.wav
Пиковый уровень 59.6 %
Скорость извлечения 9.9 X
Качество трека 100.0 %
CRC теста DCDCDB86
CRC копии DCDCDB86
Точность не определена (достоверность 2) [DFBB1CC3], AccurateRip вернул [E18209E5] (AR v2)
Копирование... OK
Ни один трек не прошёл проверки на точность
В вашей базе может быть иной вариант штамповки диска
Ошибок не произошло
Конец отчёта
==== Контрольная сумма отчёта 5331F81A5A59313978661C7BE228AEACA4700543AE28B9D4DAF208F21F597806 ====
 
Содержание индексной карты (.CUE)
REM GENRE "Contemporary Jazz"
REM DATE 2000
REM DISCID 500FAE06
REM COMMENT "ExactAudioCopy v1.0b3"
CATALOG 0000000000000
PERFORMER "Cuong Vu"
TITLE "Pure"
FILE "01 Faith.wav" WAVE
TRACK 01 AUDIO
TITLE "Faith"
PERFORMER "Cuong Vu"
INDEX 01 00:00:00
FILE "02 Vina, All Grown Up.wav" WAVE
TRACK 02 AUDIO
TITLE "Vina, All Grown Up"
PERFORMER "Cuong Vu"
INDEX 01 00:00:00
FILE "03 Pitter-Patter.wav" WAVE
TRACK 03 AUDIO
TITLE "Pitter-Patter"
PERFORMER "Cuong Vu"
INDEX 01 00:00:00
FILE "04 Child-Like.wav" WAVE
TRACK 04 AUDIO
TITLE "Child-Like"
PERFORMER "Cuong Vu"
INDEX 01 00:00:00
FILE "05 I Shall Never Come Back.wav" WAVE
TRACK 05 AUDIO
TITLE "I Shall Never Come Back"
PERFORMER "Cuong Vu"
INDEX 01 00:00:00
FILE "06 Pure.wav" WAVE
TRACK 06 AUDIO
TITLE "Pure"
PERFORMER "Cuong Vu"
INDEX 01 00:00:00
 
Состав
Bass – Stomu Takeishi
Drums – John Hollenbeck
Trumpet – Cuong Vu
По всем вопросам пишите личное сообщение пользователю M0p94ok.
13:34
207
Нет комментариев. Ваш будет первым!