Вы используете незарегистрированную версию компонента "Вкладки"!

Поиск

(Modern Free / Avant-Garde) Atomic - Theater Tilters - 2010, FLAC (image+.cue) lossless

(Modern Free / Avant-Garde) Atomic - Theater Tilters - 2010, FLAC (image+.cue) lossless
Треклист:
Atomic / Theater Tilters

Жанр: Modern Free / Avant-Garde
Страна-производитель диска: EU
Год издания диска: 2010
Издатель (лейбл): Jazzland
Номер по каталогу: 0602527334110
Страна: Norway
Аудио кодек: FLAC (*.flac)
Тип рипа: image+.cue
Битрейт аудио: lossless
Продолжительность: 1:27:28
Источник (релизер): собственный рип
Наличие сканов в содержимом раздачи: нет
Disc 1
1. Green Mill Tilter
2. Andersonville
3. Fissures
4. Murmansk
5. Bop About
Disc 2
1. Roma
2. Sanguine
3. Edit
4. Barylite
5. Two Boxes
Recorded live at Teater Lederman / Stockholm on October 6th & 7th 2009
 
Лог создания рипа
 
Disc 1
Exact Audio Copy V0.99 prebeta 4 from 23. January 2008
EAC extraction logfile from 19. September 2010, 17:15
Atomic / Theater Tilters (Disc 1)
Used drive : TSSTcorpCD/DVDW SH-S182M Adapter: 1 ID: 0
Read mode : Secure
Utilize accurate stream : Yes
Defeat audio cache : Yes
Make use of C2 pointers : No
Read offset correction : 6
Overread into Lead-In and Lead-Out : No
Fill up missing offset samples with silence : Yes
Delete leading and trailing silent blocks : No
Null samples used in CRC calculations : Yes
Used interface : Installed external ASPI interface
Used output format : User Defined Encoder
Selected bitrate : 1024 kBit/s
Quality : High
Add ID3 tag : No
Command line compressor : C:\Program Files\Exact Audio Copy\Flac\flac.exe
Additional command line options : -6 -V -T "ARTIST=%a" -T "TITLE=%t" -T "ALBUM=%g" -T "DATE=%y" -T "TRACKNUMBER=%n" -T "GENRE=%m" -T "COMMENT=EAC FLAC -6" %s
TOC of the extracted CD
Track | Start | Length | Start sector | End sector
---------------------------------------------------------
1 | 0:00.00 | 9:16.17 | 0 | 41716
2 | 9:16.17 | 13:32.30 | 41717 | 102646
3 | 22:48.47 | 9:02.72 | 102647 | 143368
4 | 31:51.44 | 9:10.55 | 143369 | 184673
5 | 41:02.24 | 3:26.05 | 184674 | 200128
Range status and errors
Selected range
Filename C:\Users\Igor\Music\eac\Atomic - Theater Tilters (Disc 1).wav
Peak level 98.7 %
Range quality 100.0 %
Test CRC 52C97CC9
Copy CRC 52C97CC9
Copy OK
No errors occurred
AccurateRip summary
Track 1 accurately ripped (confidence 2) [2A1982A3]
Track 2 accurately ripped (confidence 2) [CEEDF92D]
Track 3 accurately ripped (confidence 2) [4F7C7E4B]
Track 4 accurately ripped (confidence 2) [A05BDB3E]
Track 5 accurately ripped (confidence 2) [BB167AC4]
All tracks accurately ripped
End of status report
 
Disc 2
Exact Audio Copy V0.99 prebeta 4 from 23. January 2008
EAC extraction logfile from 19. September 2010, 17:01
Atomic / Theater Tilters (Disc 2)
Used drive : TSSTcorpCD/DVDW SH-S182M Adapter: 1 ID: 0
Read mode : Secure
Utilize accurate stream : Yes
Defeat audio cache : Yes
Make use of C2 pointers : No
Read offset correction : 6
Overread into Lead-In and Lead-Out : No
Fill up missing offset samples with silence : Yes
Delete leading and trailing silent blocks : No
Null samples used in CRC calculations : Yes
Used interface : Installed external ASPI interface
Used output format : User Defined Encoder
Selected bitrate : 1024 kBit/s
Quality : High
Add ID3 tag : No
Command line compressor : C:\Program Files\Exact Audio Copy\Flac\flac.exe
Additional command line options : -6 -V -T "ARTIST=%a" -T "TITLE=%t" -T "ALBUM=%g" -T "DATE=%y" -T "TRACKNUMBER=%n" -T "GENRE=%m" -T "COMMENT=EAC FLAC -6" %s
TOC of the extracted CD
Track | Start | Length | Start sector | End sector
---------------------------------------------------------
1 | 0:00.00 | 6:41.00 | 0 | 30074
2 | 6:41.00 | 9:52.31 | 30075 | 74505
3 | 16:33.31 | 9:01.45 | 74506 | 115125
4 | 25:35.01 | 11:50.00 | 115126 | 168375
5 | 37:25.01 | 5:34.74 | 168376 | 193499
Range status and errors
Selected range
Filename C:\Users\Igor\Music\eac\Atomic - Theater Tilters (Disc 2).wav
Peak level 98.7 %
Range quality 100.0 %
Test CRC 6E97F2CB
Copy CRC 6E97F2CB
Copy OK
No errors occurred
AccurateRip summary
Track 1 not present in database
Track 2 not present in database
Track 3 not present in database
Track 4 not present in database
Track 5 not present in database
None of the tracks are present in the AccurateRip database
End of status report
 
Состав
Magnus Broo: trumpet
Håvard Wiik: piano
Ingebrigt Håker Flaten: bass
Paal Nilssen-Love: drums
Fredrik Ljungkvist: tenor and baritone saxophones, clarinet
Any questions -> support@pro-jazz.com. По всем вопросам пишите -> support@pro-jazz.com
03:45
141
Нет комментариев. Ваш будет первым!