Вы используете незарегистрированную версию компонента "Вкладки"!

Поиск

(Experimental Jazz \ Avant-garde) Lucien Dubuis Trio - Tovorak - 2005, FLAC (tracks+.cue) lossless

Треклист:
Lucien Dubuis Trio - Tovorak - 2005, FLAC (tracks+.cue) lossless
Жанр: Experimental Jazz \ Avantgarde
Год издания диска: 2005
Издатель (лейбл): Tovorak
Страна: Switzerland
Аудио кодек: FLAC (*.flac)
Тип рипа: tracks+.cue
Битрейт аудио: lossless
Продолжительность: 59:36
Источник (релизер): сеть
Наличие сканов в содержимом раздачи: да
Треклист:
01 - Non Pas
02 - Bouille De Carottes
03 - Veux Pas Dormir
04 - Balles Masques
05 - HPC1ere
06 - Insomnie
07 - Boubouille
08 - Gege Fat Baby And Orangus The Gutanis
09 - Dear Mr. Crunch
10 - Avril-Gutanis Hairs
11 - De Nuit
12 - La Goutte Au Nez
13 - Mammouth
14 - Inegalite Transbionique A Ressort
 
Лог создания рипа
X Lossless Decoder version 20100302 (116.6)
XLD extraction logfile from 2010-03-15 15:38:49 -0400
Lucien Dubuis Trio / Tovorak
Used drive : MATSHITA DVD-R UJ-857D (revision KBVB)
Use cdparanoia mode : YES (CDParanoia III 10.2 engine)
Disable audio cache : OK for the drive with cache less than 2750KB
Make use of C2 pointers : NO
Read offset correction : 102
Max retry count : 100
TOC of the extracted CD
Track | Start | Length | Start sector | End sector
---------------------------------------------------------
1 | 00:00:00 | 02:23:00 | 0 | 10724
2 | 02:23:00 | 02:18:41 | 10725 | 21115
3 | 04:41:41 | 03:17:42 | 21116 | 35932
4 | 07:59:08 | 06:59:14 | 35933 | 67371
5 | 14:58:22 | 02:08:15 | 67372 | 76986
6 | 17:06:37 | 02:47:37 | 76987 | 89548
7 | 19:53:74 | 03:47:70 | 89549 | 106643
8 | 23:41:69 | 04:25:55 | 106644 | 126573
9 | 28:07:49 | 03:19:02 | 126574 | 141500
10 | 31:26:51 | 07:47:38 | 141501 | 176563
11 | 39:14:14 | 03:46:56 | 176564 | 193569
12 | 43:00:70 | 04:40:22 | 193570 | 214591
13 | 47:41:17 | 05:27:28 | 214592 | 239144
14 | 53:08:45 | 06:27:54 | 239145 | 268223
All Tracks
Album gain : -9.34 dB
Peak : 0.988770
Track 01
Filename : /Temp/Lucien Dubuis Trio 2005 Tovorak FLAC/01 - Non Pas.flac
Pre-gap length : 00:02:00
Track gain : -10.30 dB
Peak : 0.988739
CRC32 hash (test run) : 05652911
CRC32 hash : 05652911
CRC32 hash (skip zero) : 2FB96C97
AccurateRip signature : 1C6BB8B4
->Track not present in AccurateRip database.
Statistics
Read error : 0
Skipped (treated as error) : 0
Edge jitter error (maybe fixed) : 0
Atom jitter error (maybe fixed) : 0
Drift error (maybe fixed) : 0
Dropped bytes error (maybe fixed) : 0
Duplicated bytes error (maybe fixed) : 0
Inconsistency in error sectors : 0
Track 02
Filename : /Temp/Lucien Dubuis Trio 2005 Tovorak FLAC/02 - Bouille De Carottes.flac
Pre-gap length : 00:02:00
Track gain : -10.00 dB
Peak : 0.988739
CRC32 hash (test run) : 153C84E6
CRC32 hash : 153C84E6
CRC32 hash (skip zero) : 4CDCE959
AccurateRip signature : 74EB58E4
->Track not present in AccurateRip database.
Statistics
Read error : 0
Skipped (treated as error) : 0
Edge jitter error (maybe fixed) : 0
Atom jitter error (maybe fixed) : 0
Drift error (maybe fixed) : 0
Dropped bytes error (maybe fixed) : 0
Duplicated bytes error (maybe fixed) : 0
Inconsistency in error sectors : 0
Track 03
Filename : /Temp/Lucien Dubuis Trio 2005 Tovorak FLAC/03 - Veux Pas Dormir.flac
Pre-gap length : 00:02:50
Track gain : -9.84 dB
Peak : 0.988770
CRC32 hash (test run) : 65B625E7
CRC32 hash : 65B625E7
CRC32 hash (skip zero) : 0D2A84B1
AccurateRip signature : 01338F13
->Track not present in AccurateRip database.
Statistics
Read error : 0
Skipped (treated as error) : 0
Edge jitter error (maybe fixed) : 0
Atom jitter error (maybe fixed) : 0
Drift error (maybe fixed) : 0
Dropped bytes error (maybe fixed) : 0
Duplicated bytes error (maybe fixed) : 0
Inconsistency in error sectors : 0
Track 04
Filename : /Temp/Lucien Dubuis Trio 2005 Tovorak FLAC/04 - Balles Masques.flac
Pre-gap length : 00:02:54
Track gain : -9.67 dB
Peak : 0.988770
CRC32 hash (test run) : B73818FD
CRC32 hash : B73818FD
CRC32 hash (skip zero) : 6EDD39AB
AccurateRip signature : 70100A00
->Track not present in AccurateRip database.
Statistics
Read error : 0
Skipped (treated as error) : 0
Edge jitter error (maybe fixed) : 0
Atom jitter error (maybe fixed) : 0
Drift error (maybe fixed) : 0
Dropped bytes error (maybe fixed) : 0
Duplicated bytes error (maybe fixed) : 0
Inconsistency in error sectors : 0
Track 05
Filename : /Temp/Lucien Dubuis Trio 2005 Tovorak FLAC/05 - HPC1ere.flac
Pre-gap length : 00:02:68
Track gain : -9.92 dB
Peak : 0.988739
CRC32 hash (test run) : AB65EA31
CRC32 hash : AB65EA31
CRC32 hash (skip zero) : EE657302
AccurateRip signature : A2C630AF
->Track not present in AccurateRip database.
Statistics
Read error : 0
Skipped (treated as error) : 0
Edge jitter error (maybe fixed) : 0
Atom jitter error (maybe fixed) : 0
Drift error (maybe fixed) : 0
Dropped bytes error (maybe fixed) : 0
Duplicated bytes error (maybe fixed) : 0
Inconsistency in error sectors : 0
Track 06
Filename : /Temp/Lucien Dubuis Trio 2005 Tovorak FLAC/06 - Insomnie.flac
Pre-gap length : 00:02:00
Track gain : -10.58 dB
Peak : 0.988770
CRC32 hash (test run) : A442BA0F
CRC32 hash : A442BA0F
CRC32 hash (skip zero) : 76225D9C
AccurateRip signature : 69DDD0B7
->Track not present in AccurateRip database.
Statistics
Read error : 0
Skipped (treated as error) : 0
Edge jitter error (maybe fixed) : 0
Atom jitter error (maybe fixed) : 0
Drift error (maybe fixed) : 0
Dropped bytes error (maybe fixed) : 0
Duplicated bytes error (maybe fixed) : 0
Inconsistency in error sectors : 0
Track 07
Filename : /Temp/Lucien Dubuis Trio 2005 Tovorak FLAC/07 - Boubouille.flac
Pre-gap length : 00:02:00
Track gain : -6.53 dB
Peak : 0.988708
CRC32 hash (test run) : 016F2DF5
CRC32 hash : 016F2DF5
CRC32 hash (skip zero) : 713BAD56
AccurateRip signature : CBF16DE8
->Track not present in AccurateRip database.
Statistics
Read error : 0
Skipped (treated as error) : 0
Edge jitter error (maybe fixed) : 0
Atom jitter error (maybe fixed) : 0
Drift error (maybe fixed) : 0
Dropped bytes error (maybe fixed) : 0
Duplicated bytes error (maybe fixed) : 0
Inconsistency in error sectors : 0
Track 08
Filename : /Temp/Lucien Dubuis Trio 2005 Tovorak FLAC/08 - Gege Fat Baby And Orangus The Gutanis.flac
Pre-gap length : 00:02:00
Track gain : -9.37 dB
Peak : 0.988770
CRC32 hash (test run) : 26D8E064
CRC32 hash : 26D8E064
CRC32 hash (skip zero) : B7F0034D
AccurateRip signature : 2BE623CC
->Track not present in AccurateRip database.
Statistics
Read error : 0
Skipped (treated as error) : 0
Edge jitter error (maybe fixed) : 0
Atom jitter error (maybe fixed) : 0
Drift error (maybe fixed) : 0
Dropped bytes error (maybe fixed) : 0
Duplicated bytes error (maybe fixed) : 0
Inconsistency in error sectors : 0
Track 09
Filename : /Temp/Lucien Dubuis Trio 2005 Tovorak FLAC/09 - Dear Mr. Crunch.flac
Pre-gap length : 00:00:74
Track gain : -8.43 dB
Peak : 0.988739
CRC32 hash (test run) : 69446A55
CRC32 hash : 69446A55
CRC32 hash (skip zero) : E47E6CB3
AccurateRip signature : ADF39539
->Track not present in AccurateRip database.
Statistics
Read error : 0
Skipped (treated as error) : 0
Edge jitter error (maybe fixed) : 0
Atom jitter error (maybe fixed) : 0
Drift error (maybe fixed) : 0
Dropped bytes error (maybe fixed) : 0
Duplicated bytes error (maybe fixed) : 0
Inconsistency in error sectors : 0
Track 10
Filename : /Temp/Lucien Dubuis Trio 2005 Tovorak FLAC/10 - Avril-Gutanis Hairs.flac
Pre-gap length : 00:02:23
Track gain : -8.37 dB
Peak : 0.988770
CRC32 hash (test run) : 883A8D23
CRC32 hash : 883A8D23
CRC32 hash (skip zero) : 8A1B643A
AccurateRip signature : 371D329C
->Track not present in AccurateRip database.
Statistics
Read error : 0
Skipped (treated as error) : 0
Edge jitter error (maybe fixed) : 0
Atom jitter error (maybe fixed) : 0
Drift error (maybe fixed) : 0
Dropped bytes error (maybe fixed) : 0
Duplicated bytes error (maybe fixed) : 0
Inconsistency in error sectors : 0
Track 11
Filename : /Temp/Lucien Dubuis Trio 2005 Tovorak FLAC/11 - De Nuit.flac
Pre-gap length : 00:02:14
Track gain : -9.36 dB
Peak : 0.988739
CRC32 hash (test run) : 88EA2BF3
CRC32 hash : 88EA2BF3
CRC32 hash (skip zero) : 60A17D19
AccurateRip signature : 8C8A2703
->Track not present in AccurateRip database.
Statistics
Read error : 0
Skipped (treated as error) : 0
Edge jitter error (maybe fixed) : 0
Atom jitter error (maybe fixed) : 0
Drift error (maybe fixed) : 0
Dropped bytes error (maybe fixed) : 0
Duplicated bytes error (maybe fixed) : 0
Inconsistency in error sectors : 0
Track 12
Filename : /Temp/Lucien Dubuis Trio 2005 Tovorak FLAC/12 - La Goutte Au Nez.flac
Pre-gap length : 00:02:64
Track gain : -7.00 dB
Peak : 0.988739
CRC32 hash (test run) : 66E10300
CRC32 hash : 66E10300
CRC32 hash (skip zero) : 1BD4FB83
AccurateRip signature : 2291BCF2
->Track not present in AccurateRip database.
Statistics
Read error : 0
Skipped (treated as error) : 0
Edge jitter error (maybe fixed) : 0
Atom jitter error (maybe fixed) : 0
Drift error (maybe fixed) : 0
Dropped bytes error (maybe fixed) : 0
Duplicated bytes error (maybe fixed) : 0
Inconsistency in error sectors : 0
Track 13
Filename : /Temp/Lucien Dubuis Trio 2005 Tovorak FLAC/13 - Mammouth.flac
Pre-gap length : 00:04:35
Track gain : -7.40 dB
Peak : 0.988739
CRC32 hash (test run) : 4BEBCDA5
CRC32 hash : 4BEBCDA5
CRC32 hash (skip zero) : BC7F163E
AccurateRip signature : EB284FDF
->Track not present in AccurateRip database.
Statistics
Read error : 0
Skipped (treated as error) : 0
Edge jitter error (maybe fixed) : 0
Atom jitter error (maybe fixed) : 0
Drift error (maybe fixed) : 0
Dropped bytes error (maybe fixed) : 0
Duplicated bytes error (maybe fixed) : 0
Inconsistency in error sectors : 0
Track 14
Filename : /Temp/Lucien Dubuis Trio 2005 Tovorak FLAC/14 - Inegalite Transbionique A Ressort.flac
Pre-gap length : 00:03:40
Track gain : -9.34 dB
Peak : 0.988770
CRC32 hash (test run) : 210ACAE7
CRC32 hash : 210ACAE7
CRC32 hash (skip zero) : 99CF5820
AccurateRip signature : FA0A7EF7
->Track not present in AccurateRip database.
Statistics
Read error : 0
Skipped (treated as error) : 0
Edge jitter error (maybe fixed) : 0
Atom jitter error (maybe fixed) : 0
Drift error (maybe fixed) : 0
Dropped bytes error (maybe fixed) : 0
Duplicated bytes error (maybe fixed) : 0
Inconsistency in error sectors : 0
No errors occurred
End of status report
 
Содержание индексной карты (.CUE)
TITLE "Tovorak"
PERFORMER "Lucien Dubuis Trio"
REM GENRE "Jazz"
REM DATE 2005
FILE "01 - Non Pas.wav" WAVE
TRACK 01 AUDIO
TITLE "Non Pas"
INDEX 01 00:00:00
TRACK 02 AUDIO
TITLE "Bouille De Carottes"
INDEX 00 02:21:00
FILE "02 - Bouille De Carottes.wav" WAVE
INDEX 01 00:00:00
TRACK 03 AUDIO
TITLE "Veux Pas Dormir"
INDEX 00 02:15:66
FILE "03 - Veux Pas Dormir.wav" WAVE
INDEX 01 00:00:00
TRACK 04 AUDIO
TITLE "Balles Masques"
INDEX 00 03:14:63
FILE "04 - Balles Masques.wav" WAVE
INDEX 01 00:00:00
TRACK 05 AUDIO
TITLE "HPC1ere"
INDEX 00 06:56:21
FILE "05 - HPC1ere.wav" WAVE
INDEX 01 00:00:00
TRACK 06 AUDIO
TITLE "Insomnie"
INDEX 00 02:06:15
FILE "06 - Insomnie.wav" WAVE
INDEX 01 00:00:00
TRACK 07 AUDIO
TITLE "Boubouille"
INDEX 00 02:45:37
FILE "07 - Boubouille.wav" WAVE
INDEX 01 00:00:00
TRACK 08 AUDIO
TITLE "Gege Fat Baby And Orangus The Gutanis"
INDEX 00 03:45:70
FILE "08 - Gege Fat Baby And Orangus The Gutanis.wav" WAVE
INDEX 01 00:00:00
TRACK 09 AUDIO
TITLE "Dear Mr. Crunch"
INDEX 00 04:24:56
FILE "09 - Dear Mr. Crunch.wav" WAVE
INDEX 01 00:00:00
TRACK 10 AUDIO
TITLE "Avril-Gutanis Hairs"
INDEX 00 03:16:54
FILE "10 - Avril-Gutanis Hairs.wav" WAVE
INDEX 01 00:00:00
TRACK 11 AUDIO
TITLE "De Nuit"
INDEX 00 07:45:24
FILE "11 - De Nuit.wav" WAVE
INDEX 01 00:00:00
TRACK 12 AUDIO
TITLE "La Goutte Au Nez"
INDEX 00 03:43:67
FILE "12 - La Goutte Au Nez.wav" WAVE
INDEX 01 00:00:00
TRACK 13 AUDIO
TITLE "Mammouth"
INDEX 00 04:35:62
FILE "13 - Mammouth.wav" WAVE
INDEX 01 00:00:00
TRACK 14 AUDIO
TITLE "Inegalite Transbionique A Ressort"
INDEX 00 05:23:63
FILE "14 - Inegalite Transbionique A Ressort.wav" WAVE
INDEX 01 00:00:00
 
Состав
Lucien Dubuis — alto saxophone, contrabass clarinet
Roman Nowka — bass, guitar, vocals
Lionel Friedli — drums
По всем вопросам пишите личное сообщение пользователю M0p94ok.
03:46
163
Нет комментариев. Ваш будет первым!