Вы используете незарегистрированную версию компонента "Вкладки"!

Поиск

(Modern Free) Acoustic Guitar Trio (Rod Poole, Nels Cline, Jim McAuley) - Acoustic Guitar Trio - 2001, FLAC (tracks+.cue), lossless

(Modern Free) Acoustic Guitar Trio (Rod Poole, Nels Cline, Jim McAuley) - Acoustic Guitar Trio - 2001, FLAC (tracks+.cue), lossless
Треклист:
Acoustic Guitar Trio (Rod Poole, Nels Cline, Jim McAuley) - Acoustic Guitar Trio
Жанр: Modern Free
Год выпуска диска: 2001
Производитель диска: England
Аудио кодек: FLAC
Тип рипа: tracks+.cue
Битрейт аудио: lossless
Трэклист:
1. Inclusive
2. My you
3. Ectinguished by rain
4. Squeeze toy
5. Web
6. Seventeen step
Доп. информация:
Rod Poole, Nels Cline, Jim McAuley: acoustic guitars
Incus CD 46
 
EAC log
Exact Audio Copy V0.99 prebeta 4 from 23. January 2008
EAC extraction logfile from 17. June 2009, 11:49
Acoustic Guitar Trio (Rod Poole, Nels Cline, Jim McAuley) / Acoustic Guitar Trio
Used drive : PIONEER DVD-RW DVR-109 Adapter: 1 ID: 0
Read mode : Secure
Utilize accurate stream : Yes
Defeat audio cache : Yes
Make use of C2 pointers : No
Read offset correction : 48
Overread into Lead-In and Lead-Out : No
Fill up missing offset samples with silence : Yes
Delete leading and trailing silent blocks : No
Null samples used in CRC calculations : Yes
Used interface : Installed external ASPI interface
Gap handling : Appended to previous track
Used output format : User Defined Encoder
Selected bitrate : 320 kBit/s
Quality : High
Add ID3 tag : No
Command line compressor : C:\Program Files\Exact Audio Copy\Flac\flac.exe
Additional command line options : -8 -V -T "ARTIST=%a" -T "TITLE=%t" -T "ALBUM=%g" -T "DATE=%y" -T "TRACKNUMBER=%n" -T "TOTALTRACKS=%x" -T "GENRE=%m" -T "ALBUM ARTIST=%v" -T "ALBUMARTIST=%v" -T "COMMENT=EAC V0.99 prebeta 4, Secure Mode, Test & Copy, Accurat
TOC of the extracted CD
Track | Start | Length | Start sector | End sector
---------------------------------------------------------
1 | 0:00.01 | 9:01.08 | 1 | 40583
2 | 9:01.09 | 9:33.11 | 40584 | 83569
3 | 18:34.20 | 13:54.66 | 83570 | 146185
4 | 32:29.11 | 3:48.28 | 146186 | 163313
5 | 36:17.39 | 3:35.69 | 163314 | 179507
6 | 39:53.33 | 17:14.07 | 179508 | 257064
Track 1
Filename D:\Torrent\Acoustic Guitar Trio (2001) [FLAC] {Incus CD46}\01 - Inclusive.wav
Pre-gap length 0:00:02.01
Peak level 100.0 %
Track quality 100.0 %
Test CRC A4F7CC3F
Copy CRC A4F7CC3F
Accurately ripped (confidence 1) [AF32AC2B]
Copy OK
Track 2
Filename D:\Torrent\Acoustic Guitar Trio (2001) [FLAC] {Incus CD46}\02 - My You.wav
Peak level 100.0 %
Track quality 99.9 %
Test CRC 3501C938
Copy CRC 3501C938
Accurately ripped (confidence 1) [ACF8099F]
Copy OK
Track 3
Filename D:\Torrent\Acoustic Guitar Trio (2001) [FLAC] {Incus CD46}\03 - Extinguished By Rain.wav
Peak level 100.0 %
Track quality 100.0 %
Test CRC 39023534
Copy CRC 39023534
Accurately ripped (confidence 1) [25F7FD85]
Copy OK
Track 4
Filename D:\Torrent\Acoustic Guitar Trio (2001) [FLAC] {Incus CD46}\04 - Squeeze Toy.wav
Peak level 94.2 %
Track quality 100.0 %
Test CRC 563226F0
Copy CRC 563226F0
Accurately ripped (confidence 1) [92D1F3BD]
Copy OK
Track 5
Filename D:\Torrent\Acoustic Guitar Trio (2001) [FLAC] {Incus CD46}\05 - Web.wav
Peak level 82.5 %
Track quality 100.0 %
Test CRC B6C9C9B8
Copy CRC B6C9C9B8
Accurately ripped (confidence 1) [1FA8CB57]
Copy OK
Track 6
Filename D:\Torrent\Acoustic Guitar Trio (2001) [FLAC] {Incus CD46}\06 - Seventeen Step.wav
Peak level 100.0 %
Track quality 100.0 %
Test CRC 6C1C173D
Copy CRC 6C1C173D
Accurately ripped (confidence 1) [03B5FA07]
Copy OK
All tracks accurately ripped
No errors occurred
End of status report
Any questions -> support@pro-jazz.com. По всем вопросам пишите -> support@pro-jazz.com
12:37
139
Нет комментариев. Ваш будет первым!