Вы используете незарегистрированную версию компонента "Вкладки"!

Поиск

(Free Jazz / Experimental) Damsel - Distressed - 2006, FLAC (tracks+.cue), lossless

(Free Jazz / Experimental) Damsel - Distressed - 2006, FLAC (tracks+.cue), lossless
Треклист:
Damsel - Distressed
Жанр: Free Jazz / Experimental
Год выпуска диска: 2006
Производитель диска: US (Temporary Residence Limited) [TRR113]
Аудио кодек: FLAC
Тип рипа: tracks+.cue
Битрейт аудио: lossless
Продолжительность: 45:27
Трэклист:
Jonathan Hischke - electric bass, bass-like things, effects
Zach Hill - drums, damage
Nels Cline - electric guitar, effects
Matt Zivich - ems
1. Enduring Freedom
2. Fork-Fed
3. Deathwatch on the American Empire
4. Space Needle
 
.log
Exact Audio Copy V0.99 prebeta 4 from 23. January 2008
EAC extraction logfile from 8. July 2009, 19:34
Damsel / Distressed
Used drive : Optiarc DVD RW AD-7200A Adapter: 1 ID: 0
Read mode : Secure
Utilize accurate stream : Yes
Defeat audio cache : Yes
Make use of C2 pointers : No
Read offset correction : 48
Overread into Lead-In and Lead-Out : No
Fill up missing offset samples with silence : Yes
Delete leading and trailing silent blocks : No
Null samples used in CRC calculations : Yes
Used interface : Native Win32 interface for Win NT & 2000
Gap handling : Appended to previous track
Used output format : User Defined Encoder
Selected bitrate : 768 kBit/s
Quality : High
Add ID3 tag : No
Command line compressor : C:\Program Files\Exact Audio Copy\Flac\flac.exe
Additional command line options : -V -8 -T "artist=%a" -T "title=%t" -T "album=%g" -T "date=%y" -T "tracknumber=%n" -T "genre=%m" %s
TOC of the extracted CD
Track | Start | Length | Start sector | End sector
---------------------------------------------------------
1 | 0:00.00 | 11:30.46 | 0 | 51795
2 | 11:30.46 | 9:29.25 | 51796 | 94495
3 | 20:59.71 | 17:39.10 | 94496 | 173930
4 | 38:39.06 | 6:49.62 | 173931 | 204667
Track 1
Filename C:\Uploads\Damsel - Distressed (2006) [FLAC]\01 - Enduring Freedom.wav
Pre-gap length 0:00:02.00
Peak level 96.6 %
Track quality 100.0 %
Copy CRC 7E871A3E
Copy OK
Track 2
Filename C:\Uploads\Damsel - Distressed (2006) [FLAC]\02 - Fork-Fed.wav
Pre-gap length 0:00:03.00
Peak level 96.6 %
Track quality 100.0 %
Copy CRC E7CDD85A
Copy OK
Track 3
Filename C:\Uploads\Damsel - Distressed (2006) [FLAC]\03 - Deathwatch on the American Empire.wav
Pre-gap length 0:00:04.00
Peak level 96.6 %
Track quality 100.0 %
Copy CRC 236D0DD2
Copy OK
Track 4
Filename C:\Uploads\Damsel - Distressed (2006) [FLAC]\04 - Space Needle.wav
Pre-gap length 0:00:05.00
Peak level 96.6 %
Track quality 100.0 %
Copy CRC 43B7FC7F
Copy OK
No errors occurred
End of status report
Any questions -> support@pro-jazz.com. По всем вопросам пишите -> support@pro-jazz.com
12:38
138
Нет комментариев. Ваш будет первым!