Вы используете незарегистрированную версию компонента "Вкладки"!

Поиск

(modern creative/avant-garde jazz) Bite The Gnatze - Wals Door Het Raam - 2007, FLAC (tracks+.cue), lossless

(modern creative/avant-garde jazz) Bite The Gnatze - Wals Door Het Raam - 2007, FLAC (tracks+.cue), lossless
Треклист:
Bite The Gnatze / Wals Door Het Raam
Жанр: modern creative/avant-garde jazz
Страна-производитель диска: Netherlands
Год издания диска: 2007
Издатель (лейбл): TryTone
Номер по каталогу: TT559-037
Страна: Netherlands
Аудиокодек: FLAC (*.flac)
Тип рипа: tracks+.cue
Битрейт аудио: lossless
Продолжительность: 52:31
Источник (релизер): собственный рип
Наличие сканов в содержимом раздачи: да
Треклист:
1/ als een haas op een kale berg
2. schuur
3. voor de wukertulp
4. letbaby
5. wals door het raam
6. de bokkepolka
7. schuivertje voor de nacht
8. midnight on the water
 
Лог создания рипа
Exact Audio Copy V0.99 prebeta 5 from 4. May 2009
EAC extraction logfile from 31. March 2011, 12:07
Bite the Gnatze / Wals door het raam
Used drive : Optiarc DVD RW AD-7243S Adapter: 0 ID: 1
Read mode : Secure
Utilize accurate stream : Yes
Defeat audio cache : Yes
Make use of C2 pointers : No
Read offset correction : 48
Overread into Lead-In and Lead-Out : No
Fill up missing offset samples with silence : Yes
Delete leading and trailing silent blocks : No
Null samples used in CRC calculations : Yes
Used interface : Native Win32 interface for Win NT & 2000
Gap handling : Appended to previous track
Used output format : User Defined Encoder
Selected bitrate : 768 kBit/s
Quality : High
Add ID3 tag : No
Command line compressor : C:\Program Files\Exact Audio Copy\FLAC\FLAC.EXE
Additional command line options : -6 -V -T "ARTIST=%a" -T "TITLE=%t" -T "ALBUM=%g" -T "DATE=%y" -T "TRACKNUMBER=%n" -T "GENRE=%m" -T "COMMENT=%e" %s -o %d
TOC of the extracted CD
Track | Start | Length | Start sector | End sector
---------------------------------------------------------
1 | 0:00.00 | 4:30.24 | 0 | 20273
2 | 4:30.24 | 6:31.56 | 20274 | 49654
3 | 11:02.05 | 8:49.34 | 49655 | 89363
4 | 19:51.39 | 6:18.29 | 89364 | 117742
5 | 26:09.68 | 8:27.56 | 117743 | 155823
6 | 34:37.49 | 4:43.70 | 155824 | 177118
7 | 39:21.44 | 7:37.19 | 177119 | 211412
8 | 46:58.63 | 5:32.16 | 211413 | 236328
Track 1
Filename C:\Documents and Settings\S\Мои документы\Torrent раздача\01.Bite the Gnatze-Als een haas op een kale berg.wav
Pre-gap length 0:00:02.00
Peak level 98.8 %
Track quality 99.9 %
Test CRC BFE5A34E
Copy CRC BFE5A34E
Track not present in AccurateRip database
Copy OK
Track 2
Filename C:\Documents and Settings\S\Мои документы\Torrent раздача\02.Bite the Gnatze-Schuur.wav
Pre-gap length 0:00:03.00
Peak level 98.8 %
Track quality 100.0 %
Test CRC 8D5BB25E
Copy CRC 8D5BB25E
Track not present in AccurateRip database
Copy OK
Track 3
Filename C:\Documents and Settings\S\Мои документы\Torrent раздача\03.Bite the Gnatze-Voor de wijkertuip.wav
Pre-gap length 0:00:04.00
Peak level 98.8 %
Track quality 100.0 %
Test CRC 4C7AA8A5
Copy CRC 4C7AA8A5
Track not present in AccurateRip database
Copy OK
Track 4
Filename C:\Documents and Settings\S\Мои документы\Torrent раздача\04.Bite the Gnatze-Lefbaby.wav
Pre-gap length 0:00:04.00
Peak level 86.5 %
Track quality 100.0 %
Test CRC A67475B7
Copy CRC A67475B7
Track not present in AccurateRip database
Copy OK
Track 5
Filename C:\Documents and Settings\S\Мои документы\Torrent раздача\05.Bite the Gnatze-Wals door het raam.wav
Pre-gap length 0:00:04.00
Peak level 98.8 %
Track quality 99.9 %
Test CRC F4F0334C
Copy CRC F4F0334C
Track not present in AccurateRip database
Copy OK
Track 6
Filename C:\Documents and Settings\S\Мои документы\Torrent раздача\06.Bite the Gnatze-De Bokkepolka.wav
Pre-gap length 0:00:03.00
Peak level 98.8 %
Track quality 99.9 %
Test CRC 8DC02144
Copy CRC 8DC02144
Track not present in AccurateRip database
Copy OK
Track 7
Filename C:\Documents and Settings\S\Мои документы\Torrent раздача\07.Bite the Gnatze-Schuivertje voor de nacht.wav
Pre-gap length 0:00:03.00
Peak level 98.8 %
Track quality 99.9 %
Test CRC 1A2A4E83
Copy CRC 1A2A4E83
Track not present in AccurateRip database
Copy OK
Track 8
Filename C:\Documents and Settings\S\Мои документы\Torrent раздача\08.Bite the Gnatze-Midnight on the water.wav
Pre-gap length 0:00:04.00
Peak level 70.6 %
Track quality 100.0 %
Test CRC 3C78E5F7
Copy CRC 3C78E5F7
Track not present in AccurateRip database
Copy OK
None of the tracks are present in the AccurateRip database
No errors occurred
End of status report
 
Содержание индексной карты (.CUE)
REM GENRE Avantgarde
REM DATE 2007
REM DISCID 650C4F08
REM COMMENT "ExactAudioCopy v0.99pb5"
PERFORMER "Bite the Gnatze"
TITLE "Wals door het raam"
FILE "01.Bite the Gnatze-Als een haas op een kale berg.wav" WAVE
TRACK 01 AUDIO
TITLE "Als een haas op een kale berg"
PERFORMER "Bite the Gnatze"
INDEX 01 00:00:00
TRACK 02 AUDIO
TITLE "Schuur"
PERFORMER "Bite the Gnatze"
INDEX 00 04:27:24
FILE "02.Bite the Gnatze-Schuur.wav" WAVE
INDEX 01 00:00:00
TRACK 03 AUDIO
TITLE "Voor de wijkertuip"
PERFORMER "Bite the Gnatze"
INDEX 00 06:27:56
FILE "03.Bite the Gnatze-Voor de wijkertuip.wav" WAVE
INDEX 01 00:00:00
TRACK 04 AUDIO
TITLE "Lefbaby"
PERFORMER "Bite the Gnatze"
INDEX 00 08:45:34
FILE "04.Bite the Gnatze-Lefbaby.wav" WAVE
INDEX 01 00:00:00
TRACK 05 AUDIO
TITLE "Wals door het raam"
PERFORMER "Bite the Gnatze"
INDEX 00 06:14:29
FILE "05.Bite the Gnatze-Wals door het raam.wav" WAVE
INDEX 01 00:00:00
TRACK 06 AUDIO
TITLE "De Bokkepolka"
PERFORMER "Bite the Gnatze"
INDEX 00 08:24:56
FILE "06.Bite the Gnatze-De Bokkepolka.wav" WAVE
INDEX 01 00:00:00
TRACK 07 AUDIO
TITLE "Schuivertje voor de nacht"
PERFORMER "Bite the Gnatze"
INDEX 00 04:40:70
FILE "07.Bite the Gnatze-Schuivertje voor de nacht.wav" WAVE
INDEX 01 00:00:00
TRACK 08 AUDIO
TITLE "Midnight on the water"
PERFORMER "Bite the Gnatze"
INDEX 00 07:33:19
FILE "08.Bite the Gnatze-Midnight on the water.wav" WAVE
INDEX 01 00:00:00
 
Состав
jasper le clercq - violin
joost buis - trombone/lapsteelguitar
michel duijves - clarinet/bass-clarinet/tinwistle
steven kamperman - clarinet/sax
paul pallesen - guitar/bouzouki
meinrad kneer - double bass
alan purves - drums, percussion
Другие раздачи
http://rutracker.org/forum/search.php?uid=17163016
Any questions -> support@pro-jazz.com. По всем вопросам пишите -> support@pro-jazz.com
16:24
153
Нет комментариев. Ваш будет первым!