Вы используете незарегистрированную версию компонента "Вкладки"!

Поиск

(Avant-Garde / Free Jazz) The Bill Dixon Orchestra - Intents And Purposes - 1967 (2011 Remastered CD Reissue), FLAC (tracks+.cue), lossless

(Avant-Garde / Free Jazz) The Bill Dixon Orchestra - Intents And Purposes - 1967 (2011 Remastered CD Reissue), FLAC (tracks+.cue), lossless
Треклист:
The Bill Dixon Orchestra / Intents And Purposes (1967)
Жанр: Avant-Garde / Free Jazz
Год издания диска: 2011 (Remastered CD Reissue)
Издатель (лейбл): International Phonograph Inc.
Аудиокодек: FLAC (*.flac)
Тип рипа: tracks+.cue
Битрейт аудио: lossless
Продолжительность: 32:22
Источник / релизер: what.cd / harmonicon
Наличие сканов в содержимом раздачи: нет
Треклист:
1. Metamorphosis 1962-1966 [13:32]
2. Nightfall Pieces I [3:57]
3. Voices [12:21]
4. Nightfall Pieces II [2:30]
 
Состав
Bill Dixon - trumpet, flugelhorn
Jimmy Cheatham - bass trombone (1)
Byard Lancaster - alto saxophone (1), bass clarinet (1, 3)
Robin Kenyatta - alto saxophone (1)
George Marge - english horn (1), flute (2, 4)
Catherine Norris - cello (1, 3)
Jimmy Garrison - double bass (1, 3)
Reggie Workman - double bass (1)
Robert Frank Pozar - drums (1, 3)
Marc Levin - percussion (1)
 
Лог создания рипа
Exact Audio Copy V1.0 beta 1 from 15. November 2010
EAC extraction logfile from 27. April 2011, 20:06
The Bill Dixon Orchestra / Intents and Purposes
Used drive : Optiarc DVD+-RW AD-7560S Adapter: 1 ID: 0
Read mode : Secure
Utilize accurate stream : Yes
Defeat audio cache : Yes
Make use of C2 pointers : No
Read offset correction : 6
Overread into Lead-In and Lead-Out : No
Fill up missing offset samples with silence : Yes
Delete leading and trailing silent blocks : No
Null samples used in CRC calculations : Yes
Used interface : Native Win32 interface for Win NT & 2000
Gap handling : Appended to previous track
Used output format : User Defined Encoder
Selected bitrate : 128 kBit/s
Quality : High
Add ID3 tag : No
Command line compressor : C:\Program Files\Exact Audio Copy\Flac\flac.exe
Additional command line options : -V -8 -T "artist=%a" -T "title=%t" -T "album=%g" -T "date=%y" -T "tracknumber=%n" -T "genre=%m" %s
TOC of the extracted CD
Track | Start | Length | Start sector | End sector
---------------------------------------------------------
1 | 0:00.00 | 13:32.54 | 0 | 60953
2 | 13:32.54 | 3:57.50 | 60954 | 78778
3 | 17:30.29 | 12:21.36 | 78779 | 134389
4 | 29:51.65 | 2:30.49 | 134390 | 145688
Track 1
Filename C:\EAC\The Bill Dixon Orchestra - 2011 - Intents and Purposes\01 - Metamorphosis 1962-1966.wav
Pre-gap length 0:00:02.00
Peak level 100.0 %
Extraction speed 3.2 X
Track quality 100.0 %
Test CRC CDACF093
Copy CRC CDACF093
Track not present in AccurateRip database
Copy OK
Track 2
Filename C:\EAC\The Bill Dixon Orchestra - 2011 - Intents and Purposes\02 - Nightfall Pieces I.wav
Peak level 100.0 %
Extraction speed 3.5 X
Track quality 100.0 %
Test CRC C3D95950
Copy CRC C3D95950
Track not present in AccurateRip database
Copy OK
Track 3
Filename C:\EAC\The Bill Dixon Orchestra - 2011 - Intents and Purposes\03 - Voices.wav
Peak level 100.0 %
Extraction speed 4.1 X
Track quality 99.9 %
Test CRC 93D37606
Copy CRC 93D37606
Track not present in AccurateRip database
Copy OK
Track 4
Filename C:\EAC\The Bill Dixon Orchestra - 2011 - Intents and Purposes\04 - Nightfall Pieces II.wav
Peak level 100.0 %
Extraction speed 3.9 X
Track quality 100.0 %
Test CRC 35E00637
Copy CRC 35E00637
Track not present in AccurateRip database
Copy OK
None of the tracks are present in the AccurateRip database
No errors occurred
End of status report
 
Содержание индексной карты (.CUE)
REM GENRE Jazz
REM DATE 2011
REM DISCID 2B079604
REM COMMENT "ExactAudioCopy v1.0b1"
PERFORMER "The Bill Dixon Orchestra"
TITLE "Intents and Purposes"
FILE "01 - Metamorphosis 1962-1966.flac" WAVE
TRACK 01 AUDIO
TITLE "Metamorphosis 1962-1966"
PERFORMER "The Bill Dixon Orchestra"
FLAGS DCP
INDEX 01 00:00:00
FILE "02 - Nightfall Pieces I.flac" WAVE
TRACK 02 AUDIO
TITLE "Nightfall Pieces I"
PERFORMER "The Bill Dixon Orchestra"
FLAGS DCP
INDEX 01 00:00:00
FILE "03 - Voices.flac" WAVE
TRACK 03 AUDIO
TITLE "Voices"
PERFORMER "The Bill Dixon Orchestra"
FLAGS DCP
INDEX 01 00:00:00
FILE "04 - Nightfall Pieces II.flac" WAVE
TRACK 04 AUDIO
TITLE "Nightfall Pieces II"
PERFORMER "The Bill Dixon Orchestra"
FLAGS DCP
INDEX 01 00:00:00
Any questions -> support@pro-jazz.com. По всем вопросам пишите -> support@pro-jazz.com
16:24
158
Нет комментариев. Ваш будет первым!