Поиск

(Modern Creative / World Fusion / Enja) Ferenc Snetberger - For My People - 2000, FLAC (image+.cue), lossless

(Modern Creative / World Fusion / Enja) Ferenc Snetberger - For My People - 2000, FLAC (image+.cue), lossless
Треклист:
Ferenc Snétberger - For My People
Жанр: Modern Creative / World Fusion / Enja
Год выпуска диска: 2000
Производитель диска: Germany (Enja)
Аудио кодек: FLAC
Тип рипа: image+.cue
Битрейт аудио: lossless
Продолжительность: 50:23
Ferenc Snétberger acoustic guitar
Markus Stockhausen trumpet, flugelhorn (2-4)
The Franz Liszt Chamber Orchestra (5-7)
1. Mazurka
2. Hajnal
3. Gond Nélkül
4. Alkony
5. Hallgató
6. Emlékek
7. Tánc
8. Fantázia
9. Vals Criollo / Vals Gitano
 
EAC Report
Exact Audio Copy V0.99 prebeta 4 from 23. January 2008
EAC extraction logfile from 19. October 2008, 21:24
Ferenc Snétberger / For My People
Used drive : TSSTcorpCD/DVDW SH-S182M Adapter: 2 ID: 1
Read mode : Secure
Utilize accurate stream : Yes
Defeat audio cache : Yes
Make use of C2 pointers : No
Read offset correction : 6
Overread into Lead-In and Lead-Out : No
Fill up missing offset samples with silence : Yes
Delete leading and trailing silent blocks : No
Null samples used in CRC calculations : Yes
Used interface : Installed external ASPI interface
Used output format : User Defined Encoder
Selected bitrate : 1024 kBit/s
Quality : High
Add ID3 tag : No
Command line compressor : C:\Program Files\Exact Audio Copy\FLAC\FLAC.EXE
Additional command line options : -6 -V -T "ARTIST=%a" -T "TITLE=%t" -T "ALBUM=%g" -T "DATE=%y" -T "TRACKNUMBER=%n" -T "GENRE=%m" -T "COMMENT=%e" %s -o %d
TOC of the extracted CD
Track | Start | Length | Start sector | End sector
---------------------------------------------------------
1 | 0:00.55 | 3:51.24 | 55 | 17403
2 | 3:52.04 | 6:56.31 | 17404 | 48634
3 | 10:48.35 | 3:38.45 | 48635 | 65029
4 | 14:27.05 | 9:05.09 | 65030 | 105913
5 | 23:32.14 | 8:08.53 | 105914 | 142566
6 | 31:40.67 | 8:06.02 | 142567 | 179018
7 | 39:46.69 | 3:37.61 | 179019 | 195354
8 | 43:24.55 | 5:05.50 | 195355 | 218279
9 | 48:30.30 | 1:52.19 | 218280 | 226698
Range status and errors
Selected range
Filename C:\z\Ferenc Snétberger - For My People.wav
Peak level 98.9 %
Range quality 100.0 %
Copy CRC 45556082
Copy OK
No errors occurred
AccurateRip summary
Track 1 not present in database
Track 2 not present in database
Track 3 not present in database
Track 4 not present in database
Track 5 not present in database
Track 6 not present in database
Track 7 not present in database
Track 8 not present in database
Track 9 not present in database
None of the tracks are present in the AccurateRip database
End of status report
04:23
311
Нет комментариев. Ваш будет первым!