Поиск

(Jazz, Hasidic, Avant, Tzadik) Danny Zamir - SATLAH - 2000, APE (image+.cue), lossless

Треклист:
Danny Zamir - SATLAH
Жанр: Jazz, Hasidic, Avant
Год выпуска диска: 2000
Производитель диска: USA
Лейбл: Tzadik (Radical Jewish Culture)
Аудио кодек: APE
Тип рипа: image+.cue
Битрейт аудио: lossless
Продолжительность: 54 min
Трэклист:
SATLAH
1. The Theme & Poem 16
2. Poem 17
3. Poem 12b
4. Poem 25
5. Hasar Hamemuneh
6. Poem 1
7. Poem 7
8. Poem 22
9. Poem 29
10. Poem 5
11. The Theme & Poem 15
Доп. информация: Рип сделан с оригинального CD TZ7139
Музыканты:
Danny Zamir - alto sax, toys
Shanir Ezra Blumenkranz - bass, darbukkah, tapes, toys
Kevin Zubek - drums, percussion, toys
Специально приглашенный гость:
John Zorn (лично) - alto sax
Американский дебют молодого израильского саксафониста - любимчика Зорна - Дани Замира... Путешествие в мир эйфории... Что касается названия большинства композиций, то это Замир объясняет приблизительно так - название, определенным образом влияет на восприятие, а так, пусть каждый слушает и решает для себя...
 
EAC Log
Exact Audio Copy V0.99 prebeta 4 from 23. January 2008
EAC extraction logfile from 6. November 2008, 12:29
Danny Zamir / Satlah
Used drive : TSSTcorpCD/DVDW SH-W162C Adapter: 0 ID: 0
Read mode : Secure
Utilize accurate stream : Yes
Defeat audio cache : Yes
Make use of C2 pointers : No
Read offset correction : 6
Overread into Lead-In and Lead-Out : No
Fill up missing offset samples with silence : Yes
Delete leading and trailing silent blocks : No
Null samples used in CRC calculations : Yes
Used interface : Installed external ASPI interface
Used output format : Internal WAV Routines
Sample format : 44.100 Hz; 16 Bit; Stereo
Use compression offset : 0
TOC of the extracted CD
Track | Start | Length | Start sector | End sector
---------------------------------------------------------
1 | 0:00.00 | 5:28.17 | 0 | 24616
2 | 5:28.17 | 3:36.25 | 24617 | 40841
3 | 9:04.42 | 3:09.08 | 40842 | 55024
4 | 12:13.50 | 3:36.02 | 55025 | 71226
5 | 15:49.52 | 3:27.50 | 71227 | 86801
6 | 19:17.27 | 6:57.58 | 86802 | 118134
7 | 26:15.10 | 4:36.62 | 118135 | 138896
8 | 30:51.72 | 5:27.45 | 138897 | 163466
9 | 36:19.42 | 5:48.65 | 163467 | 189631
10 | 42:08.32 | 5:57.00 | 189632 | 216406
11 | 48:05.32 | 6:21.15 | 216407 | 244996
Range status and errors
Selected range
Filename C:\Danny Zamir (2001) SATLAH\Danny Zamir - Satlah.wav
Peak level 100.0 %
Range quality 100.0 %
Copy CRC 9204F1F4
Copy OK
No errors occurred
End of status report
Мои раздачи
03:24
289
Нет комментариев. Ваш будет первым!