Вы используете незарегистрированную версию компонента "Вкладки"!

Поиск

(Modern Creative, Tzadik) Gabriele Coen Jewish Experience - Awakening - 2010, FLAC (image+.cue), lossless

(Modern Creative, Tzadik) Gabriele Coen Jewish Experience - Awakening - 2010, FLAC (image+.cue), lossless
Треклист:
Gabriele Coen Jewish Experience / Awakening
Жанр: Modern Creative, Tzadik
Страна-производитель диска: US
Год издания диска: 2010
Издатель (лейбл): Tzadik
Номер по каталогу: 8154
Аудиокодек: FLAC (*.flac)
Тип рипа: image+.cue
Битрейт аудио: lossless
Продолжительность: 64:24
Источник (релизер): cd
Наличие сканов в содержимом раздачи: нет
Треклист:
1. Awakening 8:11
2. No Hay Boda Sin Pandero 6:01
3. Di Sapozhkelekh 7:02
4. Merry-Go-Round 7:35
5. Once 6:56
6. Levanah 6:43
7. Vibes 6:30
8. Nostalgia 6:22
9. Shemesh 5:10
10. Koilen 3:54
 
Лог создания рипа
Exact Audio Copy V1.0 beta 2 from 29. April 2011
EAC extraction logfile from 26. November 2011, 17:54
Gabriele Coen / Jewish Experience: Awakening
Used drive : Optiarc DVD RW AD-7170A Adapter: 0 ID: 0
Read mode : Secure
Utilize accurate stream : Yes
Defeat audio cache : Yes
Make use of C2 pointers : No
Read offset correction : 48
Overread into Lead-In and Lead-Out : No
Fill up missing offset samples with silence : Yes
Delete leading and trailing silent blocks : No
Null samples used in CRC calculations : Yes
Used interface : Native Win32 interface for Win NT & 2000
Used output format : User Defined Encoder
Selected bitrate : 320 kBit/s
Quality : High
Add ID3 tag : No
Command line compressor : C:\Program Files\Exact Audio Copy\Flac\flac.exe
Additional command line options : -V -8 -T "Date=%year%" -T "Genre=%genre%" %source%
TOC of the extracted CD
Track | Start | Length | Start sector | End sector
---------------------------------------------------------
1 | 0:00.00 | 8:10.48 | 0 | 36797
2 | 8:10.48 | 6:00.39 | 36798 | 63836
3 | 14:11.12 | 7:01.43 | 63837 | 95454
4 | 21:12.55 | 7:35.33 | 95455 | 129612
5 | 28:48.13 | 6:55.58 | 129613 | 160795
6 | 35:43.71 | 6:42.52 | 160796 | 190997
7 | 42:26.48 | 6:29.74 | 190998 | 220246
8 | 48:56.47 | 6:21.48 | 220247 | 248869
9 | 55:18.20 | 5:10.23 | 248870 | 272142
10 | 60:28.43 | 3:53.53 | 272143 | 289670
Range status and errors
Selected range
Filename C:\EAC\Downloads\Gabriele Coen - Jewish Experience- Awakening.wav
Peak level 96.6 %
Extraction speed 2.1 X
Range quality 100.0 %
Test CRC DFA2F486
Copy CRC DFA2F486
Copy OK
No errors occurred
AccurateRip summary
Track 1 not present in database
Track 2 not present in database
Track 3 not present in database
Track 4 not present in database
Track 5 not present in database
Track 6 not present in database
Track 7 not present in database
Track 8 not present in database
Track 9 not present in database
Track 10 not present in database
None of the tracks are present in the AccurateRip database
End of status report
==== Log checksum 8A6880A1759D3A4DAC940956FFF39BC6CBCC15E9DEEF7F0D4753EE7E7161B221 ====
 
Содержание индексной карты (.CUE)
REM GENRE Jazz
REM DATE 2010
REM DISCID 830F160A
REM COMMENT "ExactAudioCopy v1.0b2"
PERFORMER "Gabriele Coen"
TITLE "Jewish Experience: Awakening"
FILE "Gabriele Coen - Jewish Experience- Awakening.flac" WAVE
TRACK 01 AUDIO
TITLE "Awakening"
PERFORMER "Gabriele Coen"
INDEX 01 00:00:00
TRACK 02 AUDIO
TITLE "No Hay Boda Sin Pandero"
PERFORMER "Gabriele Coen"
INDEX 01 08:10:48
TRACK 03 AUDIO
TITLE "Di Sapozhkelekh"
PERFORMER "Gabriele Coen"
INDEX 01 14:11:12
TRACK 04 AUDIO
TITLE "Merry-Go-Round"
PERFORMER "Gabriele Coen"
INDEX 01 21:12:55
TRACK 05 AUDIO
TITLE "Once"
PERFORMER "Gabriele Coen"
INDEX 01 28:48:13
TRACK 06 AUDIO
TITLE "Levanah"
PERFORMER "Gabriele Coen"
INDEX 01 35:43:71
TRACK 07 AUDIO
TITLE "Vibes"
PERFORMER "Gabriele Coen"
INDEX 01 42:26:48
TRACK 08 AUDIO
TITLE "Nostalgia"
PERFORMER "Gabriele Coen"
ISRC 000000000000
INDEX 01 48:56:47
TRACK 09 AUDIO
TITLE "Shemesh"
PERFORMER "Gabriele Coen"
ISRC 000000000000
INDEX 01 55:18:20
TRACK 10 AUDIO
TITLE "Koilen"
PERFORMER "Gabriele Coen"
ISRC 000000000000
INDEX 01 60:28:43
 
Об альбоме (сборнике)
The composer/saxophonist Gabriele Coen is a household name on the Italian jazz scene. He is the founder of the noted ensemble Klezroym and has recorded two masterful CDs of Jewish music for Italian labels. For his first Tzadik release he broadens both the scope of his music and his ensemble to create his most exciting and ambitious presentation to date. Full of energy, lyricism and improvisational excitement, Awakening is one of the strongest Jewish jazz CDs we have ever released, and a wonderful new addition to Radical Jewish Culture, now in its eighteenth year and going strong thanks to creative and passionate musicians like Gabriele Coen.
 
Состав
Gabriele Coen: Soprano Sax, Tenor Sax, Clarinet
Lutte Berg: Electric Guitars
Luca Caponi: Drums, Vibes
Marco Loddo: Double Bass
Pietro Lussu: Piano
Special Guests
Massimo Coen: Violin
Simone Haggiag: Bongo, Congas, Daf
Benny Penazzi: Cello
Any questions -> support@pro-jazz.com. По всем вопросам пишите -> support@pro-jazz.com
18:51
157
Нет комментариев. Ваш будет первым!