Вы используете незарегистрированную версию компонента "Вкладки"!

Поиск

(Free Jazz, Free Improvisation) Free Base - The Ins and Outs - 2005, FLAC (tracks+.cue), lossless

(Free Jazz, Free Improvisation) Free Base - The Ins and Outs - 2005, FLAC (tracks+.cue), lossless
Треклист:
Free Base - The Ins and Outs
Жанр: Free Jazz, Free Improvisation
Страна-производитель диска: Great Britain
Год издания диска: 2005
Издатель (лейбл): Emanem
Номер по каталогу: 4116
Аудиокодек: FLAC (*.flac)
Тип рипа: tracks+.cue
Битрейт аудио: lossless
Продолжительность: 1:11:55
Источник (релизер): собственный рип с оригинального диска.
Наличие сканов в содержимом раздачи: да
Треклист:
01. Trepid 9:18
02. Sea Frett 5:57
03. Absolute Xero 13:29
04. Skzypce 6:45
05. Kissing The Shuttle 10:15
06. Soup Song 7:17
07. I Wak On (For John Lester) 7:55
08. Sortie 10:56
 
Лог создания рипа
Exact Audio Copy V1.0 beta 2 from 29. April 2011
EAC extraction logfile from 31. October 2011, 14:05
Free Base / The Ins And Outs
Used drive : TSSTcorpCDDVDW SH-S222A Adapter: 1 ID: 0
Read mode : Secure
Utilize accurate stream : Yes
Defeat audio cache : Yes
Make use of C2 pointers : No
Read offset correction : 6
Overread into Lead-In and Lead-Out : No
Fill up missing offset samples with silence : Yes
Delete leading and trailing silent blocks : No
Null samples used in CRC calculations : Yes
Used interface : Native Win32 interface for Win NT & 2000
Gap handling : Appended to previous track
Used output format : User Defined Encoder
Selected bitrate : 896 kBit/s
Quality : High
Add ID3 tag : No
Command line compressor : C:\Tool\CD\EAC10\FLAC\FLAC.EXE
Additional command line options : -6 -V -T "ARTIST=%artist%" -T "TITLE=%title%" -T "ALBUM=%albumtitle%" -T "DATE=%year%" -T "TRACKNUMBER=%tracknr%" -T "GENRE=%genre%" -T "COMMENT=%comment%" -T "BAND=%albuminterpret%" -T "COMPOSER=%composer%" %haslyrics%--ta
TOC of the extracted CD
Track | Start | Length | Start sector | End sector
---------------------------------------------------------
1 | 0:00.00 | 9:18.02 | 0 | 41851
2 | 9:18.02 | 5:57.24 | 41852 | 68650
3 | 15:15.26 | 13:29.06 | 68651 | 129331
4 | 28:44.32 | 6:45.01 | 129332 | 159707
5 | 35:29.33 | 10:15.72 | 159708 | 205904
6 | 45:45.30 | 7:17.24 | 205905 | 238703
7 | 53:02.54 | 7:55.02 | 238704 | 274330
8 | 60:57.56 | 10:56.04 | 274331 | 323534
Track 1
Filename C:\! UPLOAD\Free Base - The Ins And Outs (2005) [FLAC] {Emanem}\01 - Trepid.wav
Pre-gap length 0:00:02.00
Peak level 98.9 %
Extraction speed 2.2 X
Track quality 100.0 %
Test CRC 66BED62F
Copy CRC 66BED62F
Accurately ripped (confidence 1) [20523D88] (AR v1)
Copy OK
Track 2
Filename C:\! UPLOAD\Free Base - The Ins And Outs (2005) [FLAC] {Emanem}\02 - Sea Frett.wav
Pre-gap length 0:00:04.00
Peak level 98.9 %
Extraction speed 2.1 X
Track quality 100.0 %
Test CRC 9E695114
Copy CRC 9E695114
Accurately ripped (confidence 1) [A273B381] (AR v1)
Copy OK
Track 3
Filename C:\! UPLOAD\Free Base - The Ins And Outs (2005) [FLAC] {Emanem}\03 - Absolute Xero.wav
Pre-gap length 0:00:04.00
Peak level 98.8 %
Extraction speed 2.2 X
Track quality 99.9 %
Test CRC D9D3D475
Copy CRC D9D3D475
Accurately ripped (confidence 1) [19E63EC4] (AR v1)
Copy OK
Track 4
Filename C:\! UPLOAD\Free Base - The Ins And Outs (2005) [FLAC] {Emanem}\04 - Skzypce.wav
Pre-gap length 0:00:04.00
Peak level 98.8 %
Extraction speed 2.0 X
Track quality 99.9 %
Test CRC FD1AA604
Copy CRC FD1AA604
Accurately ripped (confidence 1) [4A5A3FDF] (AR v1)
Copy OK
Track 5
Filename C:\! UPLOAD\Free Base - The Ins And Outs (2005) [FLAC] {Emanem}\05 - Kissing The Shuttle.wav
Pre-gap length 0:00:04.00
Peak level 98.8 %
Extraction speed 2.2 X
Track quality 100.0 %
Test CRC 6FEEB6E2
Copy CRC 6FEEB6E2
Accurately ripped (confidence 1) [1F137B43] (AR v1)
Copy OK
Track 6
Filename C:\! UPLOAD\Free Base - The Ins And Outs (2005) [FLAC] {Emanem}\06 - Soup Song.wav
Pre-gap length 0:00:04.00
Peak level 98.8 %
Extraction speed 2.2 X
Track quality 100.0 %
Test CRC 7F58E89D
Copy CRC 7F58E89D
Accurately ripped (confidence 1) [926BDA80] (AR v1)
Copy OK
Track 7
Filename C:\! UPLOAD\Free Base - The Ins And Outs (2005) [FLAC] {Emanem}\07 - I Wak On (for John Lester).wav
Pre-gap length 0:00:04.00
Peak level 98.9 %
Extraction speed 2.2 X
Track quality 100.0 %
Test CRC 9797B219
Copy CRC 9797B219
Accurately ripped (confidence 1) [F7737806] (AR v1)
Copy OK
Track 8
Filename C:\! UPLOAD\Free Base - The Ins And Outs (2005) [FLAC] {Emanem}\08 - Sortie.wav
Pre-gap length 0:00:04.00
Peak level 98.9 %
Extraction speed 2.1 X
Track quality 99.9 %
Test CRC CE788EA2
Copy CRC CE788EA2
Accurately ripped (confidence 1) [AF4EF6EF] (AR v1)
Copy OK
All tracks accurately ripped
No errors occurred
End of status report
---- CUETools DB Plugin V2.1.2
[CTDB TOCID: I6JjW0_vmXycuz3L1ITdvmCERXI-] disk not present in database, Submit result: I6JjW0_vmXycuz3L1ITdvmCERXI- has been uploaded
==== Log checksum 595D43B344093CFF56A8E3234FB6D807C71F7147545597664004C499D88B5F3A ====
 
Содержание индексной карты (.CUE)
REM GENRE "Free Improvisation"
REM DATE 2005
REM DISCID 7010D908
REM COMMENT "ExactAudioCopy v1.0b2"
PERFORMER "Free Base"
TITLE "The Ins And Outs"
FILE "01 - Trepid.wav" WAVE
TRACK 01 AUDIO
TITLE "Trepid"
PERFORMER "Free Base"
INDEX 01 00:00:00
TRACK 02 AUDIO
TITLE "Sea Frett"
PERFORMER "Free Base"
INDEX 00 09:14:02
FILE "02 - Sea Frett.wav" WAVE
INDEX 01 00:00:00
TRACK 03 AUDIO
TITLE "Absolute Xero"
PERFORMER "Free Base"
INDEX 00 05:53:24
FILE "03 - Absolute Xero.wav" WAVE
INDEX 01 00:00:00
TRACK 04 AUDIO
TITLE "Skzypce"
PERFORMER "Free Base"
INDEX 00 13:25:06
FILE "04 - Skzypce.wav" WAVE
INDEX 01 00:00:00
TRACK 05 AUDIO
TITLE "Kissing The Shuttle"
PERFORMER "Free Base"
INDEX 00 06:41:01
FILE "05 - Kissing The Shuttle.wav" WAVE
INDEX 01 00:00:00
TRACK 06 AUDIO
TITLE "Soup Song"
PERFORMER "Free Base"
INDEX 00 10:11:72
FILE "06 - Soup Song.wav" WAVE
INDEX 01 00:00:00
TRACK 07 AUDIO
TITLE "I Wak On (for John Lester)"
PERFORMER "Free Base"
INDEX 00 07:13:24
FILE "07 - I Wak On (for John Lester).wav" WAVE
INDEX 01 00:00:00
TRACK 08 AUDIO
TITLE "Sortie"
PERFORMER "Free Base"
INDEX 00 07:51:02
FILE "08 - Sortie.wav" WAVE
INDEX 01 00:00:00
Доп. информация:
Recorded at London (Gateway Studios) - 2003 September 2.
 
Об исполнителе (группе)
"Free Base is a very varied trio that includes both very fiery climaxes and becalmed moments. Although they have been in existence for a decade, this is their first appearance on record, apart from their highly praised contribution to the 2003 Freedom Of The City festival (heard on EMANEM 4212)." ~ FE
 
Об альбоме (сборнике)
Free Base consists of three of the most experienced and distinctive creative improvising musicians. Despite the fact that they have now been together as a trio for over a decade, this is their first CD release, although they can also be heard on one track of Freedom of the City 2003: Small Groups. In contrast to that live performance, they chose to make this CD as a studio recording. As Alan Wilkinson observes, "In performance, the inclination is to play continuous sets of about 45 minutes, inside which a tension is created... In a studio that is largely taken away because it is easier to play much shorter pieces and develop ideas from scratch each time. ~ aaj
 
Состав
Alan Wilkinson - alto & baritone saxophones, voice
Marcio Mattos - double bass & electronics
Steve Noble - percussion
Any questions -> support@pro-jazz.com. По всем вопросам пишите -> support@pro-jazz.com
18:52
159
Нет комментариев. Ваш будет первым!