Вы используете незарегистрированную версию компонента "Вкладки"!

Поиск

(Modern Creative) Trevor Watts Moire Music Drum Orchestra - A Wider Embrace - 1994, FLAC (tracks+.cue), lossless

(Modern Creative) Trevor Watts Moire Music Drum Orchestra - A Wider Embrace - 1994, FLAC (tracks+.cue), lossless
Треклист:
•Trevor Watts Moire Music Drum Orchestra - A Wider Embrace•
Жанр: Modern Creative
Год издания диска: 1994
Издатель (лейбл): ECM
Аудиокодек: FLAC (*.flac)
Тип рипа: tracks+.cue
Битрейт аудио: lossless
Продолжительность: 01:11:02
Источник (релизер): mishka1981
Наличие сканов в содержимом раздачи: да
Треклист:
01. Egugu 10:16
02. Medley: Ahoom Mbram/Tetegramatan/Free Flow/Tetegramatan Reprise 10:03
03. Opening Gambit 7:10
04. Otublohu 7:57
05. Bomsu 5:00
06. Hunter's Song: Ibrumankuman 2:37
07. The Rocky Road to Dublin 10:59
08. Brekete Takai 5:47
09. Southern Memories 7:46
10. We Are 3:24
 
Лог создания рипа
Exact Audio Copy V1.0 beta 1 from 15. November 2010
EAC extraction logfile from 2. February 2012, 13:24
Trevor Watts / A Wider Embrace
Used drive : Optiarc DVD RW AD-7710H Adapter: 1 ID: 0
Read mode : Secure
Utilize accurate stream : Yes
Defeat audio cache : Yes
Make use of C2 pointers : No
Read offset correction : 48
Overread into Lead-In and Lead-Out : No
Fill up missing offset samples with silence : Yes
Delete leading and trailing silent blocks : No
Null samples used in CRC calculations : Yes
Used interface : Native Win32 interface for Win NT & 2000
Gap handling : Appended to previous track
Used output format : User Defined Encoder
Selected bitrate : 896 kBit/s
Quality : High
Add ID3 tag : No
Command line compressor : C:\Program Files\Exact Audio Copy\FLAC\FLAC.EXE
Additional command line options : -8 -V -T "ARTIST=%a" -T "TITLE=%t" -T "ALBUM=%g" -T "DATE=%y" -T "TRACKNUMBER=%n" -T "GENRE=%m" -T "COMMENT=%e" %j--picture="%i"%j %s -o %d
TOC of the extracted CD
Track | Start | Length | Start sector | End sector
---------------------------------------------------------
1 | 0:00.00 | 10:16.00 | 0 | 46199
2 | 10:16.00 | 10:03.25 | 46200 | 91449
3 | 20:19.25 | 7:10.50 | 91450 | 123749
4 | 27:30.00 | 7:57.50 | 123750 | 159574
5 | 35:27.50 | 5:00.38 | 159575 | 182112
6 | 40:28.13 | 2:37.20 | 182113 | 193907
7 | 43:05.33 | 10:59.10 | 193908 | 243342
8 | 54:04.43 | 5:47.32 | 243343 | 269399
9 | 59:52.00 | 7:46.63 | 269400 | 304412
10 | 67:38.63 | 3:24.12 | 304413 | 319724
Track 1
Filename C:\MY RIPS\01 - Egugu.wav
Pre-gap length 0:00:02.00
Peak level 99.5 %
Extraction speed 3.5 X
Track quality 100.0 %
Test CRC 6A9A318B
Copy CRC 6A9A318B
Track not present in AccurateRip database
Copy OK
Track 2
Filename C:\MY RIPS\02 - Medley- Ahoom Mbram - Tetegramatan - Free Flow - Tetegramatan Reprise.wav
Pre-gap length 0:00:02.38
Peak level 96.2 %
Extraction speed 3.9 X
Track quality 99.9 %
Test CRC 2287A4C7
Copy CRC 2287A4C7
Accurately ripped (confidence 1) [CB860161]
Copy OK
Track 3
Filename C:\MY RIPS\03 - Opening Gambit.wav
Pre-gap length 0:00:02.53
Peak level 98.1 %
Extraction speed 4.1 X
Track quality 99.9 %
Test CRC 2C13E29D
Copy CRC 2C13E29D
Accurately ripped (confidence 1) [8F17ADB1]
Copy OK
Track 4
Filename C:\MY RIPS\04 - Otublohu.wav
Pre-gap length 0:00:02.08
Peak level 81.5 %
Extraction speed 5.0 X
Track quality 100.0 %
Test CRC AE393699
Copy CRC AE393699
Accurately ripped (confidence 1) [BD938EB7]
Copy OK
Track 5
Filename C:\MY RIPS\05 - Bomsu.wav
Pre-gap length 0:00:02.38
Peak level 99.9 %
Extraction speed 4.3 X
Track quality 99.9 %
Test CRC 9C06777F
Copy CRC 9C06777F
Accurately ripped (confidence 1) [149D4489]
Copy OK
Track 6
Filename C:\MY RIPS\06 - Hunters' Song- Ibrumankuman.wav
Pre-gap length 0:00:02.58
Peak level 100.0 %
Extraction speed 4.7 X
Track quality 100.0 %
Test CRC D9055F01
Copy CRC D9055F01
Accurately ripped (confidence 1) [41FF80EB]
Copy OK
Track 7
Filename C:\MY RIPS\07 - The Rocky Road to Dublin.wav
Pre-gap length 0:00:02.03
Peak level 97.7 %
Extraction speed 5.4 X
Track quality 99.9 %
Test CRC 5FED92F0
Copy CRC 5FED92F0
Accurately ripped (confidence 1) [32610415]
Copy OK
Track 8
Filename C:\MY RIPS\08 - Brekete Takai.wav
Pre-gap length 0:00:02.25
Peak level 97.7 %
Extraction speed 5.9 X
Track quality 100.0 %
Test CRC 797BC810
Copy CRC 797BC810
Accurately ripped (confidence 1) [B8E4F0F0]
Copy OK
Track 9
Filename C:\MY RIPS\09 - SouthernMemories.wav
Pre-gap length 0:00:03.25
Peak level 94.0 %
Extraction speed 6.4 X
Track quality 100.0 %
Test CRC 7DB23B11
Copy CRC 7DB23B11
Accurately ripped (confidence 1) [365DB2F9]
Copy OK
Track 10
Filename C:\MY RIPS\10 - We Are.wav
Pre-gap length 0:00:03.03
Peak level 38.7 %
Extraction speed 5.9 X
Track quality 100.0 %
Test CRC 5094D5C5
Copy CRC 5094D5C5
Accurately ripped (confidence 1) [CE2557AC]
Copy OK
9 track(s) accurately ripped
1 track(s) not present in the AccurateRip database
Some tracks could not be verified as accurate
No errors occurred
End of status report
==== Log checksum 63886704B861317F4CC2B3280509AEBFAF9F1D6CC1855ADF0336EB8600B42B9E ====
 
Содержание индексной карты (.CUE)
REM GENRE "Contemporary Jazz"
REM DATE 1993
REM DISCID 8010A70A
REM COMMENT "ExactAudioCopy v1.0b1"
PERFORMER "Trevor Watts"
TITLE "A Wider Embrace"
FILE "01 - Egugu.wav" WAVE
TRACK 01 AUDIO
TITLE "Egugu"
PERFORMER "Trevor Watts"
INDEX 01 00:00:00
TRACK 02 AUDIO
TITLE "Medley: Ahoom Mbram - Tetegramatan - Free Flow - Tetegramatan Reprise"
PERFORMER "Trevor Watts"
INDEX 00 10:13:37
FILE "02 - Medley- Ahoom Mbram - Tetegramatan - Free Flow - Tetegramatan Reprise.wav" WAVE
INDEX 01 00:00:00
TRACK 03 AUDIO
TITLE "Opening Gambit"
PERFORMER "Trevor Watts"
INDEX 00 10:00:47
FILE "03 - Opening Gambit.wav" WAVE
INDEX 01 00:00:00
TRACK 04 AUDIO
TITLE "Otublohu"
PERFORMER "Trevor Watts"
INDEX 00 07:08:42
FILE "04 - Otublohu.wav" WAVE
INDEX 01 00:00:00
TRACK 05 AUDIO
TITLE "Bomsu"
PERFORMER "Trevor Watts"
INDEX 00 07:55:12
FILE "05 - Bomsu.wav" WAVE
INDEX 01 00:00:00
TRACK 06 AUDIO
TITLE "Hunters' Song: Ibrumankuman"
PERFORMER "Trevor Watts"
INDEX 00 04:57:55
FILE "06 - Hunters' Song- Ibrumankuman.wav" WAVE
INDEX 01 00:00:00
TRACK 07 AUDIO
TITLE "The Rocky Road to Dublin"
PERFORMER "Trevor Watts"
INDEX 00 02:35:17
FILE "07 - The Rocky Road to Dublin.wav" WAVE
INDEX 01 00:00:00
TRACK 08 AUDIO
TITLE "Brekete Takai"
PERFORMER "Trevor Watts"
INDEX 00 10:56:60
FILE "08 - Brekete Takai.wav" WAVE
INDEX 01 00:00:00
TRACK 09 AUDIO
TITLE "SouthernMemories"
PERFORMER "Trevor Watts"
INDEX 00 05:44:07
FILE "09 - SouthernMemories.wav" WAVE
INDEX 01 00:00:00
TRACK 10 AUDIO
TITLE "We Are"
PERFORMER "Trevor Watts"
INDEX 00 07:43:60
FILE "10 - We Are.wav" WAVE
INDEX 01 00:00:00
 
Состав
Nana Appiah African Percussion, Arranger, Multi Instruments, Vocals
Colin McKenzie Bass
Paapa Mensah Drums
Nee Daku Patato African Percussion, Vocals
Nana Tsiboe African Percussion, Arranger, Vocals
Trevor Watts Arranger, Sax (Alto), Sax (Soprano)
Jojo Yates Multi Instruments, Vocals
Any questions -> support@pro-jazz.com. По всем вопросам пишите -> support@pro-jazz.com
21:40
177
Нет комментариев. Ваш будет первым!