Вы используете незарегистрированную версию компонента "Вкладки"!

Поиск

(Avant-Garde Jazz / Contemporary Jazz / Household Records) Petter Wettre (Erlend Slettevoll, Jonas Westergaard, Anders Mogensen) - Fountain of Youth - 2007, FLAC (tracks+.cue), lossless

(Avant-Garde Jazz / Contemporary Jazz / Household Records) Petter Wettre (Erlend Slettevoll, Jonas Westergaard, Anders Mogensen) - Fountain of Youth - 2007, FLAC (tracks+.cue), lossless
Треклист:
Petter Wettre - Fountain of Youth
Жанр: Avant-Garde Jazz / Contemporary Jazz
Страна-производитель диска: Norway
Год издания диска: 2007
Издатель (лейбл): Household Records
Номер по каталогу: DAA007
Аудиокодек: FLAC (*.flac)
Тип рипа: tracks+.cue
Битрейт аудио: lossless
Продолжительность: 00:43:50
Источник (релизер): what.cd / спасибо zopatista
Наличие сканов в содержимом раздачи: нет
Треклист:
1. Discovering (10:51)
2. Absorbing (08:00)
3. Experiencing (12:23)
4. Understanding (12:27)
Доп. информация:
Musicians:
Petter Wettre - saxophones
Erlend Slettevoll - piano
Jonas Westergaard - bass
Anders Mogensen - drums
© 2007 Household Records
Petter Wettre Official Site
Petter Wettre - Fountain of Youth slettevoll.no
 
... photo ...
 
Лог создания рипа
X Lossless Decoder version 20101208 (126.1)
XLD extraction logfile from 2010-12-12 16:28:21 +0100
Petter Wettre / Fountain of Youth
Used drive : HL-DT-ST DVDRW GS21N (revision SA18)
Ripper mode : CDParanoia III 10.2
Disable audio cache : OK for the drive with a cache less than 2750KiB
Make use of C2 pointers : NO
Read offset correction : 667
Max retry count : 100
Gap status : Analyzed, Appended
TOC of the extracted CD
Track | Start | Length | Start sector | End sector
---------------------------------------------------------
1 | 00:00:00 | 10:51:11 | 0 | 48835
2 | 10:51:11 | 08:00:33 | 48836 | 84868
3 | 18:51:44 | 12:23:36 | 84869 | 140629
4 | 31:15:05 | 12:27:54 | 140630 | 196708
AccurateRip Summary
Track 01 : OK (confidence 2)
Track 02 : OK (confidence 2)
Track 03 : OK (confidence 2)
Track 04 : OK (confidence 2)
->All tracks accurately ripped.
All Tracks
Album gain : -3.14 dB
Peak : 0.971405
Statistics
Read error : 4
Skipped (treated as error) : 0
Edge jitter error (maybe fixed) : 0
Atom jitter error (maybe fixed) : 0
Drift error (maybe fixed) : 0
Dropped bytes error (maybe fixed) : 0
Duplicated bytes error (maybe fixed) : 0
Track 01
Filename : /Unsorted MP3/00 In Progress/Petter Wettre - 2007 - Fountain of Youth/01 - Discovering.flac
Pre-gap length : 00:02:00
Track gain : -3.72 dB
Peak : 0.959137
CRC32 hash (test run) : 3844DD24
CRC32 hash : 3844DD24
CRC32 hash (skip zero) : 027D4520
AccurateRip signature : EF8EACD0
->Accurately ripped! (confidence 2)
Statistics
Read error : 2
Skipped (treated as error) : 0
Edge jitter error (maybe fixed) : 0
Atom jitter error (maybe fixed) : 0
Drift error (maybe fixed) : 0
Dropped bytes error (maybe fixed) : 0
Duplicated bytes error (maybe fixed) : 0
Inconsistency in error sectors : 0
Track 02
Filename : /Unsorted MP3/00 In Progress/Petter Wettre - 2007 - Fountain of Youth/02 - Absorbing.flac
Track gain : -3.75 dB
Peak : 0.960419
CRC32 hash (test run) : 42AC635A
CRC32 hash : 42AC635A
CRC32 hash (skip zero) : 9A39516B
AccurateRip signature : 17736BBB
->Accurately ripped! (confidence 2)
Statistics
Read error : 1
Skipped (treated as error) : 0
Edge jitter error (maybe fixed) : 0
Atom jitter error (maybe fixed) : 0
Drift error (maybe fixed) : 0
Dropped bytes error (maybe fixed) : 0
Duplicated bytes error (maybe fixed) : 0
Inconsistency in error sectors : 0
Track 03
Filename : /Unsorted MP3/00 In Progress/Petter Wettre - 2007 - Fountain of Youth/03 - Experiencing.flac
Track gain : -2.94 dB
Peak : 0.971405
CRC32 hash (test run) : 032C0346
CRC32 hash : 032C0346
CRC32 hash (skip zero) : 2C6220EC
AccurateRip signature : CD7EA999
->Accurately ripped! (confidence 2)
Statistics
Read error : 1
Skipped (treated as error) : 0
Edge jitter error (maybe fixed) : 0
Atom jitter error (maybe fixed) : 0
Drift error (maybe fixed) : 0
Dropped bytes error (maybe fixed) : 0
Duplicated bytes error (maybe fixed) : 0
Inconsistency in error sectors : 0
Track 04
Filename : /Unsorted MP3/00 In Progress/Petter Wettre - 2007 - Fountain of Youth/04 - Understanding.flac
Pre-gap length : 00:01:11
Track gain : -1.74 dB
Peak : 0.804047
CRC32 hash (test run) : F33A081B
CRC32 hash : F33A081B
CRC32 hash (skip zero) : 268D0B81
AccurateRip signature : 0EE30B43
->Accurately ripped! (confidence 2)
Statistics
Read error : 0
Skipped (treated as error) : 0
Edge jitter error (maybe fixed) : 0
Atom jitter error (maybe fixed) : 0
Drift error (maybe fixed) : 0
Dropped bytes error (maybe fixed) : 0
Duplicated bytes error (maybe fixed) : 0
Inconsistency in error sectors : 0
Some errors occurred
End of status report
 
Содержание индексной карты (.CUE)
TITLE "Fountain of Youth"
PERFORMER "Petter Wettre"
REM DATE "2007"
REM DISCID 2F0A3E04
REM REPLAYGAIN_ALBUM_GAIN -3.14 dB
REM REPLAYGAIN_ALBUM_PEAK 0.971405
FILE "01 - Discovering.wav" WAVE
TRACK 01 AUDIO
TITLE "Discovering"
ISRC NODAA0701010
REM REPLAYGAIN_TRACK_GAIN -3.72 dB
REM REPLAYGAIN_TRACK_PEAK 0.959137
INDEX 01 00:00:00
FILE "02 - Absorbing.wav" WAVE
TRACK 02 AUDIO
TITLE "Absorbing"
ISRC NODAA0701020
REM REPLAYGAIN_TRACK_GAIN -3.75 dB
REM REPLAYGAIN_TRACK_PEAK 0.960419
INDEX 01 00:00:00
FILE "03 - Experiencing.wav" WAVE
TRACK 03 AUDIO
TITLE "Experiencing"
ISRC NODAA0701030
REM REPLAYGAIN_TRACK_GAIN -2.94 dB
REM REPLAYGAIN_TRACK_PEAK 0.971405
INDEX 01 00:00:00
TRACK 04 AUDIO
TITLE "Understanding"
ISRC NODAA0701040
REM REPLAYGAIN_TRACK_GAIN -1.74 dB
REM REPLAYGAIN_TRACK_PEAK 0.804047
INDEX 00 12:22:25
FILE "04 - Understanding.wav" WAVE
INDEX 01 00:00:00
 
Audiochecker 2.0 beta (build 457)
AUDIOCHECKER v2.0 beta (build 457) - by Dester - opdester@freemail.hu
~~~~~~~~~~~~~~~~~~~~~~~~~~~~~~~~~~
Started at: четверг, 02. 02. 2012. - 18:32.23
4 files found
1 -===- L:\rutracker.org_Audio CD\#_011_Petter Wettre - Fountain of Youth (2007)\Petter Wettre - Fountain of Youth (2007)\01 - Discovering.flac
Extracted successfully
Conclusion: this track is CDDA with probability 100%
Tempfile successfully deleted.
2 -===- L:\rutracker.org_Audio CD\#_011_Petter Wettre - Fountain of Youth (2007)\Petter Wettre - Fountain of Youth (2007)\02 - Absorbing.flac
Extracted successfully
Conclusion: this track is CDDA with probability 100%
Tempfile successfully deleted.
3 -===- L:\rutracker.org_Audio CD\#_011_Petter Wettre - Fountain of Youth (2007)\Petter Wettre - Fountain of Youth (2007)\03 - Experiencing.flac
Extracted successfully
Conclusion: this track is CDDA with probability 100%
Tempfile successfully deleted.
4 -===- L:\rutracker.org_Audio CD\#_011_Petter Wettre - Fountain of Youth (2007)\Petter Wettre - Fountain of Youth (2007)\04 - Understanding.flac
Extracted successfully
Conclusion: this track is CDDA with probability 100%
Tempfile successfully deleted.
Finished at: четверг, 02. 02. 2012. - 18:37.28 (operation time: 0:05.04)
Смотри также:
2004 Petter Wettre / Dave Liebman - Tour de Force readab
Any questions -> support@pro-jazz.com. По всем вопросам пишите -> support@pro-jazz.com
21:41
211
Нет комментариев. Ваш будет первым!