Поиск

(Modern Creative, Splasc(H)) Paolo Fresu Sextet (Gianluigi Trovesi, Tino Tracanna, Roberto Cipelli, Attilio Zanchi, Ettore Fioravanti) - Ensalada Mistica - 1994, FLAC (tracks+.cue), lossless

(Modern Creative, Splasc(H)) Paolo Fresu Sextet (Gianluigi Trovesi, Tino Tracanna, Roberto Cipelli, Attilio Zanchi, Ettore Fioravanti) - Ensalada Mistica - 1994, FLAC (tracks+.cue), lossless
Издатель (лейбл):
Треклист:
Paolo Fresu Sextet / Ensalada Mistica
Жанр: Modern Creative, Splasc(H)
Страна-производитель диска: Italy
Год издания: 1994
Издатель (лейбл): Splasc(H) Records
Номер по каталогу: CDH 415.2
Аудиокодек: FLAC (*.flac)
Тип рипа: tracks+.cue
Битрейт аудио: lossless
Продолжительность: 1:04:09
Источник (релизер): я
Наличие сканов в содержимом раздачи: нет
Треклист:
01. Walkabout 6:38
02. Trasparencia 6:08
03. Martino e Pico Piumin 3:11
04. Os amarelos 2:20
05. Fellini (take one) 9:02
06. H.H. (to Hermann Hesse) 4:41
07. Waltz for Us (Attilio Zanchi) 5:20
08. Before (Tino Tracanna) 1:12
09. Monkeys (Tino Tracanna) 5:24
10. Market Square (Roberto Cipelli) 3:10
11. Trio contemporaneo 2:33
12. Plastic 4:36
13. Variazione uno 1:40
14. Le piste dei sogni 4:44
15. Fellini (take two) 3:30
All compositions by Paolo Fresu except where indicated.
Recorded at BIPS Studio, Milan, on May 3-4, 1994 and on May 10-11, 1994.
Paolo Fresu – Trumpet, Flugelhorn
Gianluigi Trovesi – Clarinet, Bass Clarinet, Alto Sax
Tino Tracanna – Soprano Sax, Tenor Sax
Roberto Cipelli – Piano
Attilio Zanchi – Double Bass
Ettore Fioravanti – Drums
 
Лог создания рипа
Exact Audio Copy V1.0 beta 3 from 29. August 2011
EAC extraction logfile from 2. February 2014, 13:58
Paolo Fresu Sextet / Ensalada Mistica
Used drive : SlimtypeeNAU508 5 Adapter: 1 ID: 0
Read mode : Secure
Utilize accurate stream : Yes
Defeat audio cache : Yes
Make use of C2 pointers : No
Read offset correction : 6
Overread into Lead-In and Lead-Out : No
Fill up missing offset samples with silence : Yes
Delete leading and trailing silent blocks : No
Null samples used in CRC calculations : Yes
Used interface : Native Win32 interface for Win NT & 2000
Gap handling : Appended to previous track
Used output format : User Defined Encoder
Selected bitrate : 768 kBit/s
Quality : High
Add ID3 tag : No
Command line compressor : C:\Program Files (x86)\Exact Audio Copy\Flac\flac.exe
Additional command line options : -8 -V -T "ARTIST=%artist%" -T "TITLE=%title%" -T "ALBUM=%albumtitle%" -T "DATE=%year%" -T "TRACKNUMBER=%tracknr%" -T "GENRE=%genre%" -T "PERFORMER=%albuminterpret%" -T "COMPOSER=%composer%" %haslyrics%--tag-from-file=LYRICS="%lyricsfile%"%haslyrics% -T "ALBUMARTIST=%albumartist%" -T "DISCNUMBER=%cdnumber%" -T "TOTALDISCS=%totalcds%" -T "TOTALTRACKS=%numtracks%" -T "COMMENT=%comment%" %source% -o %dest%
TOC of the extracted CD
Track | Start | Length | Start sector | End sector
---------------------------------------------------------
1 | 0:00.33 | 6:38.00 | 33 | 29882
2 | 6:38.33 | 6:08.00 | 29883 | 57482
3 | 12:46.33 | 3:11.00 | 57483 | 71807
4 | 15:57.33 | 2:20.00 | 71808 | 82307
5 | 18:17.33 | 9:02.35 | 82308 | 122992
6 | 27:19.68 | 4:40.40 | 122993 | 144032
7 | 32:00.33 | 5:20.35 | 144033 | 168067
8 | 37:20.68 | 1:11.40 | 168068 | 173432
9 | 38:32.33 | 5:24.12 | 173433 | 197744
10 | 43:56.45 | 3:10.00 | 197745 | 211994
11 | 47:06.45 | 2:32.63 | 211995 | 223457
12 | 49:39.33 | 4:36.00 | 223458 | 244157
13 | 54:15.33 | 1:40.30 | 244158 | 251687
14 | 55:55.63 | 4:43.45 | 251688 | 272957
15 | 60:39.33 | 3:30.00 | 272958 | 288707
Track 1
Filename C:\EAC rips\01 - Walkabout.wav
Pre-gap length 0:00:02.33
Peak level 99.9 %
Extraction speed 1.2 X
Track quality 100.0 %
Test CRC 2ED2A5FE
Copy CRC 2ED2A5FE
Accurately ripped (confidence 2) [0AF416D6] (AR v1)
Copy OK
Track 2
Filename C:\EAC rips\02 - Trasparencia.wav
Peak level 89.4 %
Extraction speed 1.4 X
Track quality 100.0 %
Test CRC E4ED8204
Copy CRC E4ED8204
Accurately ripped (confidence 2) [58D69620] (AR v1)
Copy OK
Track 3
Filename C:\EAC rips\03 - Martino e Pico Piumin.wav
Peak level 97.2 %
Extraction speed 1.4 X
Track quality 100.0 %
Test CRC DAB5C126
Copy CRC DAB5C126
Accurately ripped (confidence 2) [8AD061F2] (AR v1)
Copy OK
Track 4
Filename C:\EAC rips\04 - Os amarelos.wav
Peak level 71.0 %
Extraction speed 1.3 X
Track quality 100.0 %
Test CRC 0FEC87AD
Copy CRC 0FEC87AD
Accurately ripped (confidence 2) [F2CE452C] (AR v1)
Copy OK
Track 5
Filename C:\EAC rips\05 - Fellini (take one).wav
Peak level 97.1 %
Extraction speed 1.6 X
Track quality 99.9 %
Test CRC 380B9181
Copy CRC 380B9181
Accurately ripped (confidence 2) [04178E2C] (AR v1)
Copy OK
Track 6
Filename C:\EAC rips\06 - H.H. (to Hermann Hesse).wav
Peak level 97.2 %
Extraction speed 1.6 X
Track quality 99.9 %
Test CRC 4A6CEF78
Copy CRC 4A6CEF78
Accurately ripped (confidence 2) [FBDE6AE0] (AR v1)
Copy OK
Track 7
Filename C:\EAC rips\07 - Waltz for Us.wav
Peak level 77.0 %
Extraction speed 1.9 X
Track quality 100.0 %
Test CRC EE027C2A
Copy CRC EE027C2A
Accurately ripped (confidence 2) [48C7D5F0] (AR v1)
Copy OK
Track 8
Filename C:\EAC rips\08 - Before.wav
Peak level 60.4 %
Extraction speed 1.4 X
Track quality 100.0 %
Test CRC 5AE310F6
Copy CRC 5AE310F6
Accurately ripped (confidence 2) [0AC6F96B] (AR v1)
Copy OK
Track 9
Filename C:\EAC rips\09 - Monkeys.wav
Peak level 97.2 %
Extraction speed 2.0 X
Track quality 100.0 %
Test CRC 495F6C76
Copy CRC 495F6C76
Accurately ripped (confidence 2) [681C037C] (AR v1)
Copy OK
Track 10
Filename C:\EAC rips\10 - Market Square.wav
Peak level 66.0 %
Extraction speed 1.9 X
Track quality 100.0 %
Test CRC 740E316A
Copy CRC 740E316A
Accurately ripped (confidence 2) [F18B9137] (AR v1)
Copy OK
Track 11
Filename C:\EAC rips\11 - Trio contemporaneo.wav
Peak level 71.1 %
Extraction speed 1.9 X
Track quality 100.0 %
Test CRC 5889DE3C
Copy CRC 5889DE3C
Accurately ripped (confidence 2) [9B2342FB] (AR v1)
Copy OK
Track 12
Filename C:\EAC rips\12 - Plastic.wav
Peak level 97.2 %
Extraction speed 2.1 X
Track quality 100.0 %
Test CRC 45951B6D
Copy CRC 45951B6D
Accurately ripped (confidence 2) [08C355B4] (AR v1)
Copy OK
Track 13
Filename C:\EAC rips\13 - Variazione uno.wav
Peak level 65.1 %
Extraction speed 1.8 X
Track quality 100.0 %
Test CRC 11D43CBA
Copy CRC 11D43CBA
Accurately ripped (confidence 2) [8584870B] (AR v1)
Copy OK
Track 14
Filename C:\EAC rips\14 - Le piste dei sogni.wav
Peak level 97.1 %
Extraction speed 2.3 X
Track quality 100.0 %
Test CRC 3745BB7F
Copy CRC 3745BB7F
Accurately ripped (confidence 2) [B013F0D0] (AR v1)
Copy OK
Track 15
Filename C:\EAC rips\15 - Fellini (take two).wav
Peak level 48.5 %
Extraction speed 2.2 X
Track quality 100.0 %
Test CRC B28A4D3D
Copy CRC B28A4D3D
Accurately ripped (confidence 2) [54DDC81C] (AR v1)
Copy OK
All tracks accurately ripped
No errors occurred
End of status report
---- CUETools DB Plugin V2.1.4
[CTDB TOCID: HOV3cSYAqlPldijpStfZnC3MJeE-] disk not present in database
Submit result: HOV3cSYAqlPldijpStfZnC3MJeE- has been uploaded
==== Log checksum 3165CA60DD1936F3DF39EF0D2247E984D6419268C8BC73BAB07D18CE35193166 ====
 
Содержание индексной карты (.CUE)
REM GENRE Jazz
REM DATE 1994
REM DISCID DF0F090F
REM COMMENT "ExactAudioCopy v1.0b3"
PERFORMER "Paolo Fresu Sextet"
TITLE "Ensalada Mistica"
FILE "01 - Walkabout.wav" WAVE
TRACK 01 AUDIO
TITLE "Walkabout"
PERFORMER "Paolo Fresu Sextet"
PREGAP 00:00:33
INDEX 01 00:00:00
FILE "02 - Trasparencia.wav" WAVE
TRACK 02 AUDIO
TITLE "Trasparencia"
PERFORMER "Paolo Fresu Sextet"
INDEX 01 00:00:00
FILE "03 - Martino e Pico Piumin.wav" WAVE
TRACK 03 AUDIO
TITLE "Martino e Pico Piumin"
PERFORMER "Paolo Fresu Sextet"
INDEX 01 00:00:00
FILE "04 - Os amarelos.wav" WAVE
TRACK 04 AUDIO
TITLE "Os amarelos"
PERFORMER "Paolo Fresu Sextet"
INDEX 01 00:00:00
FILE "05 - Fellini (take one).wav" WAVE
TRACK 05 AUDIO
TITLE "Fellini (take one)"
PERFORMER "Paolo Fresu Sextet"
INDEX 01 00:00:00
FILE "06 - H.H. (to Hermann Hesse).wav" WAVE
TRACK 06 AUDIO
TITLE "H.H. (to Hermann Hesse)"
PERFORMER "Paolo Fresu Sextet"
INDEX 01 00:00:00
FILE "07 - Waltz for Us.wav" WAVE
TRACK 07 AUDIO
TITLE "Waltz for Us"
PERFORMER "Paolo Fresu Sextet"
INDEX 01 00:00:00
FILE "08 - Before.wav" WAVE
TRACK 08 AUDIO
TITLE "Before"
PERFORMER "Paolo Fresu Sextet"
INDEX 01 00:00:00
FILE "09 - Monkeys.wav" WAVE
TRACK 09 AUDIO
TITLE "Monkeys"
PERFORMER "Paolo Fresu Sextet"
INDEX 01 00:00:00
FILE "10 - Market Square.wav" WAVE
TRACK 10 AUDIO
TITLE "Market Square"
PERFORMER "Paolo Fresu Sextet"
INDEX 01 00:00:00
FILE "11 - Trio contemporaneo.wav" WAVE
TRACK 11 AUDIO
TITLE "Trio contemporaneo"
PERFORMER "Paolo Fresu Sextet"
INDEX 01 00:00:00
FILE "12 - Plastic.wav" WAVE
TRACK 12 AUDIO
TITLE "Plastic"
PERFORMER "Paolo Fresu Sextet"
INDEX 01 00:00:00
FILE "13 - Variazione uno.wav" WAVE
TRACK 13 AUDIO
TITLE "Variazione uno"
PERFORMER "Paolo Fresu Sextet"
INDEX 01 00:00:00
FILE "14 - Le piste dei sogni.wav" WAVE
TRACK 14 AUDIO
TITLE "Le piste dei sogni"
PERFORMER "Paolo Fresu Sextet"
INDEX 01 00:00:00
FILE "15 - Fellini (take two).wav" WAVE
TRACK 15 AUDIO
TITLE "Fellini (take two)"
PERFORMER "Paolo Fresu Sextet"
INDEX 01 00:00:00
По всем вопросам пишите личное сообщение пользователю M0p94ok.
10:20
281
Нет комментариев. Ваш будет первым!