Поиск

(Modern Creative, Splasc(H)) [CD] PAF (Paolo Fresu, Antonello Salis, Furio Di Castri) - Live in Capodistria - 1998, FLAC (tracks+.cue), lossless

(Modern Creative, Splasc(H)) [CD] PAF (Paolo Fresu, Antonello Salis, Furio Di Castri) - Live in Capodistria - 1998, FLAC (tracks+.cue), lossless
Издатель (лейбл):
Треклист:
PAF / Live in Capodistria
Жанр: Modern Creative, Splasc(H)
Носитель: CD
Страна-производитель диска: Italy
Год издания: 1998
Издатель (лейбл): Splasc(H) Records
Номер по каталогу: CDH 625.2
Аудиокодек: FLAC (*.flac)
Тип рипа: tracks+.cue
Битрейт аудио: lossless
Продолжительность: 1:16:43
Источник (релизер): я
Наличие сканов в содержимом раздачи: нет
Треклист:
01. Next Stop (Antonello Salis) 8:17
02. Everything Happens to Me (Dennis, Thomas) 11:39
03. The Open Trio (Paolo Fresu) 7:35
04. Suenos (Furio Di Castri) 14:02
05. Hands (Fresu, Di Castri, Salis) 4:32
06. Medley: Monasterio e Santa Chiara (Barberis, Galdieri) / Non dimenticare Santa Chiara (Fresu, Di Castri, Salis) / Tho voluto bene (Redi, Galdieri) 10:24
07. PAF (Fresu, Di Castri, Salis) 5:46
08. Lester (Antonello Salis) 5:13
09. È natale (Paolo Fresu) 1:52
10. Paparazzi (Antonello Salis) 7:24
Recorded live on December 8, 1996 at the Gravisi-Barbabianca Palace, Koper / Capodistria, Slovenia.
Paolo Fresu – Trumpet, Flugelhorn, Electronics
Antonello Salis – Piano, Fisarmonica
Furio Di Castri – Bass, Electronics
 
Лог создания рипа
Exact Audio Copy V1.0 beta 3 from 29. August 2011
EAC extraction logfile from 9. February 2014, 12:18
PAF / Live in Capodistria
Used drive : SlimtypeeNAU508 5 Adapter: 1 ID: 0
Read mode : Secure
Utilize accurate stream : Yes
Defeat audio cache : Yes
Make use of C2 pointers : No
Read offset correction : 6
Overread into Lead-In and Lead-Out : No
Fill up missing offset samples with silence : Yes
Delete leading and trailing silent blocks : No
Null samples used in CRC calculations : Yes
Used interface : Native Win32 interface for Win NT & 2000
Gap handling : Appended to previous track
Used output format : User Defined Encoder
Selected bitrate : 768 kBit/s
Quality : High
Add ID3 tag : No
Command line compressor : C:\Program Files (x86)\Exact Audio Copy\Flac\flac.exe
Additional command line options : -8 -V -T "ARTIST=%artist%" -T "TITLE=%title%" -T "ALBUM=%albumtitle%" -T "DATE=%year%" -T "TRACKNUMBER=%tracknr%" -T "GENRE=%genre%" -T "PERFORMER=%albuminterpret%" -T "COMPOSER=%composer%" %haslyrics%--tag-from-file=LYRICS="%lyricsfile%"%haslyrics% -T "ALBUMARTIST=%albumartist%" -T "DISCNUMBER=%cdnumber%" -T "TOTALDISCS=%totalcds%" -T "TOTALTRACKS=%numtracks%" -T "COMMENT=%comment%" %source% -o %dest%
TOC of the extracted CD
Track | Start | Length | Start sector | End sector
---------------------------------------------------------
1 | 0:00.00 | 8:16.52 | 0 | 37251
2 | 8:16.52 | 11:39.15 | 37252 | 89691
3 | 19:55.67 | 7:35.15 | 89692 | 123831
4 | 27:31.07 | 14:01.45 | 123832 | 186951
5 | 41:32.52 | 4:32.35 | 186952 | 207386
6 | 46:05.12 | 10:23.43 | 207387 | 254154
7 | 56:28.55 | 5:45.42 | 254155 | 280071
8 | 62:14.22 | 5:13.13 | 280072 | 303559
9 | 67:27.35 | 1:51.40 | 303560 | 311924
10 | 69:19.00 | 7:24.35 | 311925 | 345259
Track 1
Filename C:\EAC rips\01 - Next Stop.wav
Pre-gap length 0:00:02.00
Peak level 99.9 %
Extraction speed 1.3 X
Track quality 99.9 %
Test CRC A07D04C1
Copy CRC A07D04C1
Accurately ripped (confidence 2) [A7DA0074] (AR v2)
Copy OK
Track 2
Filename C:\EAC rips\02 - Everything Happens to Me.wav
Peak level 99.9 %
Extraction speed 1.6 X
Track quality 99.9 %
Test CRC C95DA8A2
Copy CRC C95DA8A2
Accurately ripped (confidence 2) [8909ABA4] (AR v2)
Copy OK
Track 3
Filename C:\EAC rips\03 - The Open Trio.wav
Peak level 99.9 %
Extraction speed 1.9 X
Track quality 100.0 %
Test CRC 2AD698D6
Copy CRC 2AD698D6
Accurately ripped (confidence 2) [11E76B35] (AR v2)
Copy OK
Track 4
Filename C:\EAC rips\04 - Suenos.wav
Peak level 94.9 %
Extraction speed 2.1 X
Track quality 99.9 %
Test CRC 4A1A67CF
Copy CRC 4A1A67CF
Accurately ripped (confidence 2) [E1760D94] (AR v2)
Copy OK
Track 5
Filename C:\EAC rips\05 - Hands.wav
Peak level 53.0 %
Extraction speed 2.1 X
Track quality 100.0 %
Test CRC 0BE24CFF
Copy CRC 0BE24CFF
Accurately ripped (confidence 2) [9989636D] (AR v2)
Copy OK
Track 6
Filename C:\EAC rips\06 - Medley - Monasterio e Santa Chiara - Non dimenticare Santa Chiara - Tho voluto bene.wav
Peak level 99.9 %
Extraction speed 2.4 X
Track quality 100.0 %
Test CRC 712C51BF
Copy CRC 712C51BF
Accurately ripped (confidence 2) [5F5E5602] (AR v2)
Copy OK
Track 7
Filename C:\EAC rips\07 - PAF.wav
Peak level 99.6 %
Extraction speed 2.4 X
Track quality 100.0 %
Test CRC 4D2B760E
Copy CRC 4D2B760E
Accurately ripped (confidence 2) [A06444EE] (AR v2)
Copy OK
Track 8
Filename C:\EAC rips\08 - Lester.wav
Peak level 97.3 %
Extraction speed 2.5 X
Track quality 100.0 %
Test CRC 1839AFE1
Copy CRC 1839AFE1
Accurately ripped (confidence 2) [9DACA0E0] (AR v2)
Copy OK
Track 9
Filename C:\EAC rips\09 - È natale.wav
Peak level 62.9 %
Extraction speed 1.7 X
Track quality 99.9 %
Test CRC FE70E26E
Copy CRC FE70E26E
Accurately ripped (confidence 2) [2C1923DF] (AR v2)
Copy OK
Track 10
Filename C:\EAC rips\10 - Paparazzi.wav
Peak level 99.9 %
Extraction speed 2.7 X
Track quality 100.0 %
Test CRC 2741FF94
Copy CRC 2741FF94
Accurately ripped (confidence 2) [A940D6EC] (AR v2)
Copy OK
All tracks accurately ripped
No errors occurred
End of status report
---- CUETools DB Plugin V2.1.4
[CTDB TOCID: iitc3wqIKN8eD1hckFDzztEUx7Y-] found
Submit result: iitc3wqIKN8eD1hckFDzztEUx7Y- has been confirmed
Track | CTDB Status
1 | (1/1) Accurately ripped
2 | (1/1) Accurately ripped
3 | (1/1) Accurately ripped
4 | (1/1) Accurately ripped
5 | (1/1) Accurately ripped
6 | (1/1) Accurately ripped
7 | (1/1) Accurately ripped
8 | (1/1) Accurately ripped
9 | (1/1) Accurately ripped
10 | (1/1) Accurately ripped
==== Log checksum AA1704EB526FE1AC9D9F6AC3EE3FA9158A3EC8DC5C3FB33B43F2C94D99679EB6 ====
 
Содержание индексной карты (.CUE)
REM GENRE Jazz
REM DATE 1998
REM DISCID A011FB0A
REM COMMENT "ExactAudioCopy v1.0b3"
PERFORMER "PAF"
TITLE "Live in Capodistria"
FILE "01 - Next Stop.wav" WAVE
TRACK 01 AUDIO
TITLE "Next Stop"
PERFORMER "PAF"
INDEX 01 00:00:00
FILE "02 - Everything Happens to Me.wav" WAVE
TRACK 02 AUDIO
TITLE "Everything Happens to Me"
PERFORMER "PAF"
INDEX 01 00:00:00
FILE "03 - The Open Trio.wav" WAVE
TRACK 03 AUDIO
TITLE "The Open Trio"
PERFORMER "PAF"
INDEX 01 00:00:00
FILE "04 - Suenos.wav" WAVE
TRACK 04 AUDIO
TITLE "Suenos"
PERFORMER "PAF"
INDEX 01 00:00:00
FILE "05 - Hands.wav" WAVE
TRACK 05 AUDIO
TITLE "Hands"
PERFORMER "PAF"
INDEX 01 00:00:00
FILE "06 - Medley - Monasterio e Santa Chiara - Non dimenticare Santa Chiara - Tho voluto bene.wav" WAVE
TRACK 06 AUDIO
TITLE "Medley: Monasterio e Santa Chiara / Non dimenticare Santa Chiara / Tho voluto..."
PERFORMER "PAF"
INDEX 01 00:00:00
INDEX 02 05:14:45
INDEX 03 07:07:05
FILE "07 - PAF.wav" WAVE
TRACK 07 AUDIO
TITLE "PAF"
PERFORMER "PAF"
INDEX 01 00:00:00
FILE "08 - Lester.wav" WAVE
TRACK 08 AUDIO
TITLE "Lester"
PERFORMER "PAF"
INDEX 01 00:00:00
FILE "09 - È natale.wav" WAVE
TRACK 09 AUDIO
TITLE "È natale"
PERFORMER "PAF"
INDEX 01 00:00:00
FILE "10 - Paparazzi.wav" WAVE
TRACK 10 AUDIO
TITLE "Paparazzi"
PERFORMER "PAF"
INDEX 01 00:00:00
По всем вопросам пишите личное сообщение пользователю M0p94ok.
10:19
268
Нет комментариев. Ваш будет первым!