Поиск

(Modern Creative, Splasc(H)) [CD] Paolo Fresu Sextet (Gianluigi Trovesi, Attilio Zanchi, Tino Tracanna, Roberto Cipelli, Ettore Fioravanti) - Ossi di seppia - 1991, FLAC (tracks+.cue), lossless

(Modern Creative, Splasc(H)) [CD] Paolo Fresu Sextet (Gianluigi Trovesi, Attilio Zanchi, Tino Tracanna, Roberto Cipelli, Ettore Fioravanti) - Ossi di seppia - 1991, FLAC (tracks+.cue), lossless
Издатель (лейбл):
Треклист:
Paolo Fresu Sextet / Ossi di seppia
Жанр: Modern Creative, Splasc(H)
Носитель: CD
Страна-производитель диска: Italy
Год издания: 1991
Издатель (лейбл): Splasc(H) Records
Номер по каталогу: CDH 350.2
Аудиокодек: FLAC (*.flac)
Тип рипа: tracks+.cue
Битрейт аудио: lossless
Продолжительность: 55:58
Источник (релизер): я
Наличие сканов в содержимом раздачи: нет
Треклист:
01. Dungeons and Dragons (dedicated to Monk) (Paolo Fresu) 7:05
02. Ossi di seppia (Paolo Fresu) 8:05
03. Appuntamento sul treno (Paolo Fresu) 4:34
04. Opale (Paolo Fresu) 5:43
05. Rolling Car (Paolo Fresu) 3:30
06. Born in the Zoo (Tino Tracanna) 5:37
07. Notti di dicembre (dedicated to B. Evans) (Attilio Zanchi) 9:07
08. The Open Trio (Paolo Fresu) 7:10
09. Rolling Car (Paolo Fresu) 1:39
10. To M. (Roberto Cipelli) 3:28
All compositions arranged by Paolo Fresu.
Recorded at Highland Recording Studio, Milan, Italy, May 1/2/3, 1991.
Paolo Fresu – Trumpet and Flugelhorn
Gianluigi Trovesi – Alto Sax-Bass, Piccolo and Alto Clarinets
Attilio Zanchi – Bass
Tino Tracanna – Soprano and Tenor Saxophones
Roberto Cipelli – Piano
Ettore Fioravanti – Drums
 
Лог создания рипа
Exact Audio Copy V1.0 beta 3 from 29. August 2011
EAC extraction logfile from 9. February 2014, 15:43
Paolo Fresu Sextet / Ossi di seppia
Used drive : SlimtypeeNAU508 5 Adapter: 1 ID: 0
Read mode : Secure
Utilize accurate stream : Yes
Defeat audio cache : Yes
Make use of C2 pointers : No
Read offset correction : 6
Overread into Lead-In and Lead-Out : No
Fill up missing offset samples with silence : Yes
Delete leading and trailing silent blocks : No
Null samples used in CRC calculations : Yes
Used interface : Native Win32 interface for Win NT & 2000
Gap handling : Appended to previous track
Used output format : User Defined Encoder
Selected bitrate : 768 kBit/s
Quality : High
Add ID3 tag : No
Command line compressor : C:\Program Files (x86)\Exact Audio Copy\Flac\flac.exe
Additional command line options : -8 -V -T "ARTIST=%artist%" -T "TITLE=%title%" -T "ALBUM=%albumtitle%" -T "DATE=%year%" -T "TRACKNUMBER=%tracknr%" -T "GENRE=%genre%" -T "PERFORMER=%albuminterpret%" -T "COMPOSER=%composer%" %haslyrics%--tag-from-file=LYRICS="%lyricsfile%"%haslyrics% -T "ALBUMARTIST=%albumartist%" -T "DISCNUMBER=%cdnumber%" -T "TOTALDISCS=%totalcds%" -T "TOTALTRACKS=%numtracks%" -T "COMMENT=%comment%" %source% -o %dest%
TOC of the extracted CD
Track | Start | Length | Start sector | End sector
---------------------------------------------------------
1 | 0:00.32 | 7:04.43 | 32 | 31874
2 | 7:05.00 | 8:05.00 | 31875 | 68249
3 | 15:10.00 | 4:34.00 | 68250 | 88799
4 | 19:44.00 | 5:43.00 | 88800 | 114524
5 | 25:27.00 | 3:30.00 | 114525 | 130274
6 | 28:57.00 | 5:37.00 | 130275 | 155549
7 | 34:34.00 | 9:07.00 | 155550 | 196574
8 | 43:41.00 | 7:10.00 | 196575 | 228824
9 | 50:51.00 | 1:39.00 | 228825 | 236249
10 | 52:30.00 | 3:28.00 | 236250 | 251849
Track 1
Filename C:\EAC rips\01 - Dungeons & Dragons (dedicated to Monk).wav
Pre-gap length 0:00:02.32
Peak level 89.6 %
Extraction speed 1.1 X
Track quality 100.0 %
Test CRC 1EBD2816
Copy CRC 1EBD2816
Accurately ripped (confidence 3) [8141F552] (AR v1)
Copy OK
Track 2
Filename C:\EAC rips\02 - Ossi di seppia.wav
Peak level 89.6 %
Extraction speed 1.4 X
Track quality 100.0 %
Test CRC 69867BFF
Copy CRC 69867BFF
Accurately ripped (confidence 3) [5C33FDA7] (AR v1)
Copy OK
Track 3
Filename C:\EAC rips\03 - Appuntamento sul treno.wav
Peak level 99.9 %
Extraction speed 1.5 X
Track quality 100.0 %
Test CRC 65D8B161
Copy CRC 65D8B161
Accurately ripped (confidence 3) [1E4FA7B6] (AR v1)
Copy OK
Track 4
Filename C:\EAC rips\04 - Opale.wav
Peak level 94.5 %
Extraction speed 1.6 X
Track quality 100.0 %
Test CRC BC1FAAB8
Copy CRC BC1FAAB8
Accurately ripped (confidence 3) [7F1C794E] (AR v1)
Copy OK
Track 5
Filename C:\EAC rips\05 - Rolling Car.wav
Peak level 94.5 %
Extraction speed 1.6 X
Track quality 100.0 %
Test CRC C93B90DE
Copy CRC C93B90DE
Accurately ripped (confidence 3) [BE94778D] (AR v1)
Copy OK
Track 6
Filename C:\EAC rips\06 - Born in the Zoo.wav
Peak level 94.5 %
Extraction speed 1.6 X
Track quality 99.9 %
Test CRC 9B5EB347
Copy CRC 9B5EB347
Accurately ripped (confidence 3) [54EB6E85] (AR v1)
Copy OK
Track 7
Filename C:\EAC rips\07 - Notti di dicembre (dedicated to B. Evans).wav
Peak level 94.4 %
Extraction speed 2.0 X
Track quality 100.0 %
Test CRC 32A7E852
Copy CRC 32A7E852
Accurately ripped (confidence 3) [A077FBF3] (AR v1)
Copy OK
Track 8
Filename C:\EAC rips\08 - The Open Trio.wav
Peak level 94.5 %
Extraction speed 2.1 X
Track quality 100.0 %
Test CRC A57DBCAB
Copy CRC A57DBCAB
Accurately ripped (confidence 3) [FBD6FB8E] (AR v1)
Copy OK
Track 9
Filename C:\EAC rips\09 - Rolling Car.wav
Peak level 94.5 %
Extraction speed 1.7 X
Track quality 100.0 %
Test CRC 028E8554
Copy CRC 028E8554
Accurately ripped (confidence 3) [A43538F9] (AR v1)
Copy OK
Track 10
Filename C:\EAC rips\10 - To M..wav
Peak level 100.0 %
Extraction speed 2.0 X
Track quality 100.0 %
Test CRC 4EDFAEFE
Copy CRC 4EDFAEFE
Accurately ripped (confidence 2) [945E7631] (AR v1)
Copy OK
All tracks accurately ripped
No errors occurred
End of status report
---- CUETools DB Plugin V2.1.4
[CTDB TOCID: z65wy5sR8bj2KkHuW30uKlGkd3s-] disk not present in database
Submit result: z65wy5sR8bj2KkHuW30uKlGkd3s- has been uploaded
==== Log checksum 19A4CE4FE7A556AD16F358C408385BBD6AAD26D9CB422CF6D53F563E181314BD ====
 
Содержание индексной карты (.CUE)
REM GENRE Jazz
REM DATE 1991
REM DISCID 820D1E0A
REM COMMENT "ExactAudioCopy v1.0b3"
PERFORMER "Paolo Fresu Sextet"
TITLE "Ossi di seppia"
FILE "01 - Dungeons & Dragons (dedicated to Monk).wav" WAVE
TRACK 01 AUDIO
TITLE "Dungeons & Dragons (dedicated to Monk)"
PERFORMER "Paolo Fresu Sextet"
PREGAP 00:00:32
INDEX 01 00:00:00
FILE "02 - Ossi di seppia.wav" WAVE
TRACK 02 AUDIO
TITLE "Ossi di seppia"
PERFORMER "Paolo Fresu Sextet"
INDEX 01 00:00:00
FILE "03 - Appuntamento sul treno.wav" WAVE
TRACK 03 AUDIO
TITLE "Appuntamento sul treno"
PERFORMER "Paolo Fresu Sextet"
INDEX 01 00:00:00
FILE "04 - Opale.wav" WAVE
TRACK 04 AUDIO
TITLE "Opale"
PERFORMER "Paolo Fresu Sextet"
INDEX 01 00:00:00
FILE "05 - Rolling Car.wav" WAVE
TRACK 05 AUDIO
TITLE "Rolling Car"
PERFORMER "Paolo Fresu Sextet"
INDEX 01 00:00:00
FILE "06 - Born in the Zoo.wav" WAVE
TRACK 06 AUDIO
TITLE "Born in the Zoo"
PERFORMER "Paolo Fresu Sextet"
INDEX 01 00:00:00
FILE "07 - Notti di dicembre (dedicated to B. Evans).wav" WAVE
TRACK 07 AUDIO
TITLE "Notti di dicembre (dedicated to B. Evans)"
PERFORMER "Paolo Fresu Sextet"
INDEX 01 00:00:00
FILE "08 - The Open Trio.wav" WAVE
TRACK 08 AUDIO
TITLE "The Open Trio"
PERFORMER "Paolo Fresu Sextet"
INDEX 01 00:00:00
FILE "09 - Rolling Car.wav" WAVE
TRACK 09 AUDIO
TITLE "Rolling Car"
PERFORMER "Paolo Fresu Sextet"
INDEX 01 00:00:00
FILE "10 - To M..wav" WAVE
TRACK 10 AUDIO
TITLE "To M."
PERFORMER "Paolo Fresu Sextet"
INDEX 01 00:00:00
По всем вопросам пишите личное сообщение пользователю M0p94ok.
10:26
303
Нет комментариев. Ваш будет первым!