Поиск

(Modern Creative) [CD] Ralph Alessi & Fred Hersch - Only Many - 2013, FLAC (tracks+.cue), lossless

(Modern Creative) [CD] Ralph Alessi & Fred Hersch - Only Many - 2013, FLAC (tracks+.cue), lossless
Треклист:
Ralph Alessi & Fred Hersch - Only Many
Жанр: Modern Creative
Носитель: CD
Страна-производитель диска: Франция
Год издания: 2013
Издатель (лейбл): CamJazz
Номер по каталогу: CAMJ 7864-2
Аудиокодек: FLAC (*.flac)
Тип рипа: tracks+.cue
Битрейт аудио: lossless
Продолжительность: 60:23
Источник (релизер): jlgt
Наличие сканов в содержимом раздачи: да
Треклист:
01. Ride (Alessi-Hersch) - 1:51
02. Hands (Alessi) - 4:39
03. San Francisco Holiday (Monk) - 6:22
04. Peering (Alessi-Hersch) - 2:22
05. Humdrum (Alessi) - 4:33
06. The Cadence They Create (Alessi-Hersch) - 2:00
07. Calder (Hersch) - 4:50
08. Only Many (Alessi-Hersch) - 3:48
09. Campbell (Alessi-Hersch) - 2:58
10. 1st Dog (Alessi) - 4:32
11. Floating Head Syndrome (Alessi-Hersch) - 2:10
12. Blue Midnight (Motian) - 5:17
13. Someone Digging in the Ground (Alessi-Hersch) - 10:16
14. Snap (Alessi) - 4:45
Состав:
Ralph Alessi - trumpet
Fred Hersch - piano
Recorded in New York on June 17, 2011 and at Dolan Recording Studios/NYU Steinhardt School on May 17, 2012.
 
Лог создания рипа
Exact Audio Copy V1.0 beta 3 from 29. August 2011
EAC extraction logfile from 23. February 2014, 17:07
Ralph Alessi & Fred Hersch / Only Many
Used drive : PLEXTOR DVDR PX-L890SA Adapter: 2 ID: 1
Read mode : Secure
Utilize accurate stream : Yes
Defeat audio cache : Yes
Make use of C2 pointers : No
Read offset correction : 6
Overread into Lead-In and Lead-Out : No
Fill up missing offset samples with silence : Yes
Delete leading and trailing silent blocks : No
Null samples used in CRC calculations : Yes
Used interface : Native Win32 interface for Win NT & 2000
Gap handling : Appended to previous track
Used output format : User Defined Encoder
Selected bitrate : 768 kBit/s
Quality : High
Add ID3 tag : No
Command line compressor : C:\Program Files (x86)\Exact Audio Copy\FLAC\FLAC.EXE
Additional command line options : -8 -V -T "ARTIST=%artist%" -T "TITLE=%title%" -T "ALBUM=%albumtitle%" -T "DATE=%year%" -T "TRACKNUMBER=%tracknr%" -T "TOTALTRACKS=%numtracks%" -T "GENRE=%genre%" -T "ALBUMARTIST=%albumartist%" -T "ALBUM ARTIST=%albumartist%" -T "COMMENT=EAC Secure Mode, Test & Copy, AccurateRip, FLAC -8" %source%
TOC of the extracted CD
Track | Start | Length | Start sector | End sector
---------------------------------------------------------
1 | 0:00.00 | 1:51.37 | 0 | 8361
2 | 1:51.37 | 4:39.26 | 8362 | 29312
3 | 6:30.63 | 6:22.08 | 29313 | 57970
4 | 12:52.71 | 2:21.70 | 57971 | 68615
5 | 15:14.66 | 4:32.42 | 68616 | 89057
6 | 19:47.33 | 1:59.71 | 89058 | 98053
7 | 21:47.29 | 4:49.47 | 98054 | 119775
8 | 26:37.01 | 3:47.69 | 119776 | 136869
9 | 30:24.70 | 2:58.11 | 136870 | 150230
10 | 33:23.06 | 4:32.34 | 150231 | 170664
11 | 37:55.40 | 2:10.23 | 170665 | 180437
12 | 40:05.63 | 5:17.27 | 180438 | 204239
13 | 45:23.15 | 10:16.18 | 204240 | 250457
14 | 55:39.33 | 4:45.23 | 250458 | 271855
Track 1
Filename H:\Flac Rips\01 - Ride.wav
Pre-gap length 0:00:02.00
Peak level 92.8 %
Extraction speed 3.0 X
Track quality 100.0 %
Test CRC 545F0E0C
Copy CRC 545F0E0C
Accurately ripped (confidence 1) [C7EE8DC8] (AR v2)
Copy OK
Track 2
Filename H:\Flac Rips\02 - Hands.wav
Pre-gap length 0:00:03.00
Peak level 94.3 %
Extraction speed 3.9 X
Track quality 100.0 %
Test CRC B1CE05D8
Copy CRC B1CE05D8
Accurately ripped (confidence 1) [30C7AB59] (AR v2)
Copy OK
Track 3
Filename H:\Flac Rips\03 - San Francisco Holiday.wav
Pre-gap length 0:00:01.21
Peak level 94.2 %
Extraction speed 3.9 X
Track quality 99.9 %
Test CRC B2ECBBCE
Copy CRC B2ECBBCE
Accurately ripped (confidence 1) [CE671D87] (AR v2)
Copy OK
Track 4
Filename H:\Flac Rips\04 - Peering.wav
Pre-gap length 0:00:02.09
Peak level 94.4 %
Extraction speed 4.3 X
Track quality 100.0 %
Test CRC 54C4C784
Copy CRC 54C4C784
Accurately ripped (confidence 1) [E8FEB188] (AR v2)
Copy OK
Track 5
Filename H:\Flac Rips\05 - Humdrum.wav
Pre-gap length 0:00:02.11
Peak level 93.4 %
Extraction speed 4.1 X
Track quality 99.9 %
Test CRC 40C1AA05
Copy CRC 40C1AA05
Accurately ripped (confidence 1) [4FF3C3D5] (AR v2)
Copy OK
Track 6
Filename H:\Flac Rips\06 - The Cadence They Create.wav
Pre-gap length 0:00:01.02
Peak level 92.5 %
Extraction speed 4.5 X
Track quality 100.0 %
Test CRC 4D1506C4
Copy CRC 4D1506C4
Accurately ripped (confidence 1) [D9087B37] (AR v2)
Copy OK
Track 7
Filename H:\Flac Rips\07 - Calder.wav
Pre-gap length 0:00:03.00
Peak level 94.2 %
Extraction speed 5.5 X
Track quality 100.0 %
Test CRC 382D389D
Copy CRC 382D389D
Accurately ripped (confidence 1) [752E39F3] (AR v2)
Copy OK
Track 8
Filename H:\Flac Rips\08 - Only Many.wav
Pre-gap length 0:00:03.00
Peak level 94.3 %
Extraction speed 5.7 X
Track quality 100.0 %
Test CRC DCA823DD
Copy CRC DCA823DD
Accurately ripped (confidence 1) [B445BC9B] (AR v2)
Copy OK
Track 9
Filename H:\Flac Rips\09 - Campbell.wav
Pre-gap length 0:00:01.30
Peak level 93.3 %
Extraction speed 5.6 X
Track quality 100.0 %
Test CRC F27A49C0
Copy CRC F27A49C0
Accurately ripped (confidence 1) [B7E9BE31] (AR v2)
Copy OK
Track 10
Filename H:\Flac Rips\10 - 1st DOG.wav
Pre-gap length 0:00:03.00
Peak level 68.8 %
Extraction speed 6.2 X
Track quality 100.0 %
Test CRC 7D0B303B
Copy CRC 7D0B303B
Accurately ripped (confidence 1) [86BB2EF1] (AR v2)
Copy OK
Track 11
Filename H:\Flac Rips\11 - Floating Head Syndrome.wav
Pre-gap length 0:00:01.06
Peak level 94.2 %
Extraction speed 5.7 X
Track quality 100.0 %
Test CRC E18AFFD6
Copy CRC E18AFFD6
Accurately ripped (confidence 1) [C14BD656] (AR v2)
Copy OK
Track 12
Filename H:\Flac Rips\12 - Blue Midnight.wav
Pre-gap length 0:00:03.00
Peak level 94.3 %
Extraction speed 5.6 X
Track quality 99.9 %
Test CRC 3E43B1D6
Copy CRC 3E43B1D6
Accurately ripped (confidence 1) [9802908B] (AR v2)
Copy OK
Track 13
Filename H:\Flac Rips\13 - Someone Digging In The Ground.wav
Pre-gap length 0:00:03.00
Peak level 94.5 %
Extraction speed 7.5 X
Track quality 100.0 %
Test CRC CD4257C8
Copy CRC CD4257C8
Accurately ripped (confidence 1) [1F0511EF] (AR v2)
Copy OK
Track 14
Filename H:\Flac Rips\14 - Snap.wav
Pre-gap length 0:00:03.00
Peak level 91.2 %
Extraction speed 7.5 X
Track quality 100.0 %
Test CRC 9D5CF078
Copy CRC 9D5CF078
Accurately ripped (confidence 1) [AA7C2FB0] (AR v2)
Copy OK
All tracks accurately ripped
No errors occurred
End of status report
==== Log checksum A420F6F8F709459CD34037A733F6B36ADA329B7D1FE5B86D07AEADDD7CD16685 ====
 
Содержание индексной карты (.CUE)
REM GENRE Jazz
REM DATE 2013
REM DISCID C10E280E
REM COMMENT "ExactAudioCopy v1.0b3"
PERFORMER "Ralph Alessi & Fred Hersch"
TITLE "Only Many"
FILE "01 - Ride.wav" WAVE
TRACK 01 AUDIO
TITLE "Ride"
PERFORMER "Ralph Alessi & Fred Hersch"
INDEX 01 00:00:00
TRACK 02 AUDIO
TITLE "Hands"
PERFORMER "Ralph Alessi & Fred Hersch"
INDEX 00 01:48:37
FILE "02 - Hands.wav" WAVE
INDEX 01 00:00:00
TRACK 03 AUDIO
TITLE "San Francisco Holiday"
PERFORMER "Ralph Alessi & Fred Hersch"
INDEX 00 04:38:05
FILE "03 - San Francisco Holiday.wav" WAVE
INDEX 01 00:00:00
TRACK 04 AUDIO
TITLE "Peering"
PERFORMER "Ralph Alessi & Fred Hersch"
INDEX 00 06:19:74
FILE "04 - Peering.wav" WAVE
INDEX 01 00:00:00
TRACK 05 AUDIO
TITLE "Humdrum"
PERFORMER "Ralph Alessi & Fred Hersch"
INDEX 00 02:19:59
FILE "05 - Humdrum.wav" WAVE
INDEX 01 00:00:00
TRACK 06 AUDIO
TITLE "The Cadence They Create"
PERFORMER "Ralph Alessi & Fred Hersch"
INDEX 00 04:31:40
FILE "06 - The Cadence They Create.wav" WAVE
INDEX 01 00:00:00
TRACK 07 AUDIO
TITLE "Calder"
PERFORMER "Ralph Alessi & Fred Hersch"
INDEX 00 01:56:71
FILE "07 - Calder.wav" WAVE
INDEX 01 00:00:00
TRACK 08 AUDIO
TITLE "Only Many"
PERFORMER "Ralph Alessi & Fred Hersch"
INDEX 00 04:46:47
FILE "08 - Only Many.wav" WAVE
INDEX 01 00:00:00
TRACK 09 AUDIO
TITLE "Campbell"
PERFORMER "Ralph Alessi & Fred Hersch"
INDEX 00 03:46:39
FILE "09 - Campbell.wav" WAVE
INDEX 01 00:00:00
TRACK 10 AUDIO
TITLE "1st Dog"
PERFORMER "Ralph Alessi & Fred Hersch"
INDEX 00 02:55:11
FILE "10 - 1st Dog.wav" WAVE
INDEX 01 00:00:00
TRACK 11 AUDIO
TITLE "Floating Head Syndrome"
PERFORMER "Ralph Alessi & Fred Hersch"
INDEX 00 04:31:28
FILE "11 - Floating Head Syndrome.wav" WAVE
INDEX 01 00:00:00
TRACK 12 AUDIO
TITLE "Blue Midnight"
PERFORMER "Ralph Alessi & Fred Hersch"
INDEX 00 02:07:23
FILE "12 - Blue Midnight.wav" WAVE
INDEX 01 00:00:00
TRACK 13 AUDIO
TITLE "Someone Digging in the Ground"
PERFORMER "Ralph Alessi & Fred Hersch"
INDEX 00 05:14:27
FILE "13 - Someone Digging in the Ground.wav" WAVE
INDEX 01 00:00:00
TRACK 14 AUDIO
TITLE "Snap"
PERFORMER "Ralph Alessi & Fred Hersch"
INDEX 00 10:13:18
FILE "14 - Snap.wav" WAVE
INDEX 01 00:00:00
 
Отчет CUETools
[CUETools log; Date: 24.02.2014 16:33:57; Version: 2.1.4]
[CTDB TOCID: lXZLp28wZBbjpK25GTr.cpSpRf0-] found.
Track | CTDB Status
1 | (1/1) Accurately ripped
2 | (1/1) Accurately ripped
3 | (1/1) Accurately ripped
4 | (1/1) Accurately ripped
5 | (1/1) Accurately ripped
6 | (1/1) Accurately ripped
7 | (1/1) Accurately ripped
8 | (1/1) Accurately ripped
9 | (1/1) Accurately ripped
10 | (1/1) Accurately ripped
11 | (1/1) Accurately ripped
12 | (1/1) Accurately ripped
13 | (1/1) Accurately ripped
14 | (1/1) Accurately ripped
[AccurateRip ID: 001c0384-012f4355-c10e280e] found.
Track [ CRC | V2 ] Status
01 [52943896|c7ee8dc8] (0+1/1) Accurately ripped
02 [8c50b56c|30c7ab59] (0+1/1) Accurately ripped
03 [dc58de3d|ce671d87] (0+1/1) Accurately ripped
04 [8a492660|e8feb188] (0+1/1) Accurately ripped
05 [a083a6dc|4ff3c3d5] (0+1/1) Accurately ripped
06 [56116802|d9087b37] (0+1/1) Accurately ripped
07 [32b6bc8b|752e39f3] (0+1/1) Accurately ripped
08 [6c1b99fc|b445bc9b] (0+1/1) Accurately ripped
09 [24bb6177|b7e9be31] (0+1/1) Accurately ripped
10 [5c65a30d|86bb2ef1] (0+1/1) Accurately ripped
11 [20bdbb66|c14bd656] (0+1/1) Accurately ripped
12 [070bdc36|9802908b] (0+1/1) Accurately ripped
13 [35fc4ab8|1f0511ef] (0+1/1) Accurately ripped
14 [83b4e9d6|aa7c2fb0] (0+1/1) Accurately ripped
Track Peak [ CRC32 ] [W/O NULL] [ LOG ]
-- 94,5 [88341A25] [42011D83]
01 92,8 [545F0E0C] [40560B96] CRC32
02 94,3 [B1CE05D8] [25E60F13] CRC32
03 94,2 [B2ECBBCE] [991AEF2E] CRC32
04 94,4 [54C4C784] [A1B770EC] CRC32
05 93,4 [40C1AA05] [7E5A7F10] CRC32
06 92,5 [4D1506C4] [8CCC4E48] CRC32
07 94,2 [382D389D] [EE6BFA04] CRC32
08 94,3 [DCA823DD] [5DFED3BA] CRC32
09 93,3 [F27A49C0] [A249091B] CRC32
10 68,8 [7D0B303B] [9468306A] CRC32
11 94,2 [E18AFFD6] [4304F240] CRC32
12 94,3 [3E43B1D6] [F242A49B] CRC32
13 94,5 [CD4257C8] [99E0AB50] CRC32
14 91,2 [9D5CF078] [A57FDAC6] CRC32
 
Об альбоме (сборнике)
The second work by Ralph Alessi on CAM Jazz, after the successful debut of “Cognitive Dissonance”. This time the trumpet player shares the honor of appearing on the cover with Fred Hersch, a pianist of great class, who is in perfect accord with his partner in adventure. “Only Many” is prevalently a CD for four hands, proof of the great complicity created in the studio at the time of the recording.
The brief, intense introduction, “Ride”, seems to be almost a warning to the listener, a call to concentrate on what will happen during the 60 minutes of the album. The velvety “Hands”, composed by Alessi alone, is the prelude to one of the two “cover” pieces on the CD, the wonderful “San Francisco Holiday” by a Thelonious Monk, who can never be mentioned and reinterpreted enough. We have to wait until almost the end of “Only Many” to hear the other virtual guest, Paul Motian, with “Blue Midnight”.
Hypnotic, expanded themes, from Monk to Motian, in which improvisation and interplay reign supreme. Hersch and Alessi pursue each other, chase each other, overlap each other and slowly find increasingly different languages and expressive forms, resulting in an utterly fascinating, magnetic CD. Short, essential themes, almost always lasting between two and four minutes, except for the two interpretations of other composers and the long suite, “Someone Digging in the Ground”, which is the prelude to “Snap”, the grand finale.
A new, interesting development of the artistic dialogue between the pianist and the trumpet player that began a few years ago in Pocket Orchestra by Hersch and destined to further, surprising developments.
По всем вопросам пишите личное сообщение пользователю M0p94ok.
09:26
292
Нет комментариев. Ваш будет первым!