Вы используете незарегистрированную версию компонента "Вкладки"!

Поиск

(Modern Creative) Rafi Malkiel - Water - 2010, APE (tracks+.cue), lossless

(Modern Creative) Rafi Malkiel - Water - 2010, APE (tracks+.cue), lossless
Треклист:
Rafi Malkiel / Water
Жанр: Modern Creative
Страна-производитель диска: US
Год издания диска: 2010
Издатель (лейбл): Tzadik
Номер по каталогу: #8151
Аудиокодек: APE (*.ape)
Тип рипа: tracks+.cue
Битрейт аудио: lossless
Продолжительность: 55:27
Источник (релизер): Aeacos Спасибо!
Наличие сканов в содержимом раздачи: нет
Треклист:
1. Desert - 4:41
2. Mai Eden - 3:45
3. A Drink Of Spring - 4:14
4. Gilgool - 4:22
5. Waves - 7:38
6. Eden Rain - 6:27
7. Meet My Sweet Little Sea Monsters In Aguaphonium Land - 1:03
8. Water - 5:41
9. Aguanile Mai - 4:50
10. River Blue - 7:40
11. Water Prayer - 1:37
12. Sky Rainbow - 3:27
 
Лог создания рипа
Exact Audio Copy V1.0 beta 1 from 15. November 2010
EAC extraction logfile from 5. March 2011, 13:37
Unknown Artist / Unknown Title
Used drive : PBDS DVD+-RW DS-8W1P Adapter: 0 ID: 0
Read mode : Secure
Utilize accurate stream : Yes
Defeat audio cache : Yes
Make use of C2 pointers : No
Read offset correction : 594
Overread into Lead-In and Lead-Out : No
Fill up missing offset samples with silence : Yes
Delete leading and trailing silent blocks : No
Null samples used in CRC calculations : Yes
Used interface : Native Win32 interface for Win NT & 2000
Gap handling : Appended to previous track
Used output format : Internal WAV Routines
Sample format : 44.100 Hz; 16 Bit; Stereo
TOC of the extracted CD
Track | Start | Length | Start sector | End sector
---------------------------------------------------------
1 | 0:00.00 | 4:41.27 | 0 | 21101
2 | 4:41.27 | 3:45.22 | 21102 | 37998
3 | 8:26.49 | 4:13.35 | 37999 | 57008
4 | 12:40.09 | 4:21.68 | 57009 | 76651
5 | 17:02.02 | 7:38.09 | 76652 | 111010
6 | 24:40.11 | 6:27.28 | 111011 | 140063
7 | 31:07.39 | 1:02.65 | 140064 | 144778
8 | 32:10.29 | 5:41.08 | 144779 | 170361
9 | 37:51.37 | 4:50.08 | 170362 | 192119
10 | 42:41.45 | 7:40.25 | 192120 | 226644
11 | 50:21.70 | 1:37.05 | 226645 | 233924
12 | 51:59.00 | 3:26.41 | 233925 | 249415
Track 1
Filename H:\Upload\Rafi Malkiel - Water\01. Unknown Artist – Track01.wav
Pre-gap length 0:00:02.00
Peak level 96.6 %
Extraction speed 1.0 X
Track quality 100.0 %
Test CRC C8287215
Copy CRC C8287215
Track not present in AccurateRip database
Copy OK
Track 2
Filename H:\Upload\Rafi Malkiel - Water\02. Unknown Artist – Track02.wav
Peak level 96.6 %
Extraction speed 1.1 X
Track quality 100.0 %
Test CRC 56E44E62
Copy CRC 56E44E62
Track not present in AccurateRip database
Copy OK
Track 3
Filename H:\Upload\Rafi Malkiel - Water\03. Unknown Artist – Track03.wav
Peak level 96.6 %
Extraction speed 1.2 X
Track quality 100.0 %
Test CRC DA516DE4
Copy CRC DA516DE4
Track not present in AccurateRip database
Copy OK
Track 4
Filename H:\Upload\Rafi Malkiel - Water\04. Unknown Artist – Track04.wav
Peak level 96.6 %
Extraction speed 1.3 X
Track quality 100.0 %
Test CRC B73018E0
Copy CRC B73018E0
Track not present in AccurateRip database
Copy OK
Track 5
Filename H:\Upload\Rafi Malkiel - Water\05. Unknown Artist – Track05.wav
Peak level 94.7 %
Extraction speed 1.5 X
Track quality 100.0 %
Test CRC 897FD069
Copy CRC 897FD069
Track not present in AccurateRip database
Copy OK
Track 6
Filename H:\Upload\Rafi Malkiel - Water\06. Unknown Artist – Track06.wav
Peak level 96.6 %
Extraction speed 1.6 X
Track quality 100.0 %
Test CRC E0C5A06D
Copy CRC E0C5A06D
Track not present in AccurateRip database
Copy OK
Track 7
Filename H:\Upload\Rafi Malkiel - Water\07. Unknown Artist – Track07.wav
Peak level 36.2 %
Extraction speed 1.1 X
Track quality 100.0 %
Test CRC 48F77E03
Copy CRC 48F77E03
Track not present in AccurateRip database
Copy OK
Track 8
Filename H:\Upload\Rafi Malkiel - Water\08. Unknown Artist – Track08.wav
Peak level 96.6 %
Extraction speed 1.7 X
Track quality 100.0 %
Test CRC 66DA7BF2
Copy CRC 66DA7BF2
Track not present in AccurateRip database
Copy OK
Track 9
Filename H:\Upload\Rafi Malkiel - Water\09. Unknown Artist – Track09.wav
Peak level 96.6 %
Extraction speed 1.8 X
Track quality 100.0 %
Test CRC 9820B313
Copy CRC 9820B313
Track not present in AccurateRip database
Copy OK
Track 10
Filename H:\Upload\Rafi Malkiel - Water\10. Unknown Artist – Track10.wav
Peak level 96.6 %
Extraction speed 1.9 X
Track quality 100.0 %
Test CRC 176EAB76
Copy CRC 176EAB76
Track not present in AccurateRip database
Copy OK
Track 11
Filename H:\Upload\Rafi Malkiel - Water\11. Unknown Artist – Track11.wav
Peak level 78.0 %
Extraction speed 1.6 X
Track quality 100.0 %
Test CRC 89465974
Copy CRC 89465974
Track not present in AccurateRip database
Copy OK
Track 12
Filename H:\Upload\Rafi Malkiel - Water\12. Unknown Artist – Track12.wav
Peak level 96.6 %
Extraction speed 1.6 X
Track quality 99.9 %
Test CRC 088077CC
Copy CRC 088077CC
Track not present in AccurateRip database
Copy OK
None of the tracks are present in the AccurateRip database
No errors occurred
End of status report
 
Содержание индексной карты (EDIT.CUE)
REM DISCID 950CFD0C
REM COMMENT "ExactAudioCopy v1.0b1"
PERFORMER "Unknown Artist"
TITLE "Unknown Title"
FILE "01. Unknown Artist – Desert.wav" WAVE
TRACK 01 AUDIO
TITLE "Desert"
PERFORMER "Rafi Malkiel"
INDEX 01 00:00:00
FILE "02. Rafi Malkiel – Mai Eden.wav" WAVE
TRACK 02 AUDIO
TITLE "Mai Eden"
PERFORMER "Rafi Malkiel"
INDEX 01 00:00:00
FILE "03. Rafi Malkiel – A Drink Of Spring.wav" WAVE
TRACK 03 AUDIO
TITLE "A Drink Of Spring"
PERFORMER "Rafi Malkiel"
INDEX 01 00:00:00
FILE "04. Rafi Malkiel – Gilgool.wav" WAVE
TRACK 04 AUDIO
TITLE "Gilgool"
PERFORMER "Rafi Malkiel"
INDEX 01 00:00:00
FILE "05. Rafi Malkiel – Waves.wav" WAVE
TRACK 05 AUDIO
TITLE "Waves"
PERFORMER "Rafi Malkiel"
INDEX 01 00:00:00
FILE "06. Rafi Malkiel – Eden Rain.wav" WAVE
TRACK 06 AUDIO
TITLE "Eden Rain"
PERFORMER "Rafi Malkiel"
INDEX 01 00:00:00
FILE "07. Rafi Malkiel – Meet My Sweet Little Sea Monsters In Aguaphonium Land.wav" WAVE
TRACK 07 AUDIO
TITLE "Meet My Sweet Little Sea Monsters In Aguaphonium Land"
PERFORMER "Rafi Malkiel"
INDEX 01 00:00:00
FILE "08. Rafi Malkiel – Water.wav" WAVE
TRACK 08 AUDIO
TITLE "Water"
PERFORMER "Rafi Malkiel"
INDEX 01 00:00:00
FILE "09. Rafi Malkiel – Aguanile Mai.wav" WAVE
TRACK 09 AUDIO
TITLE "Aguanile Mai"
PERFORMER "Rafi Malkiel"
INDEX 01 00:00:00
FILE "10. Rafi Malkiel – River Blue.wav" WAVE
TRACK 10 AUDIO
TITLE "River Blue"
PERFORMER "Rafi Malkiel"
INDEX 01 00:00:00
FILE "11. Rafi Malkiel – Water Prayer.wav" WAVE
TRACK 11 AUDIO
TITLE "Water Prayer"
PERFORMER "Rafi Malkiel"
INDEX 01 00:00:00
FILE "12. Rafi Malkiel – Sky Rainbow.wav" WAVE
TRACK 12 AUDIO
TITLE "Sky Rainbow"
PERFORMER "Rafi Malkiel"
INDEX 01 00:00:00
 
Об альбоме (сборнике)
Born in Israel and now based in New York, Rafi Malkiel is a composer/performer of remarkable creativity and versatility. Active for many years as a trombonist in the Latin, jazz and Downtown music scenes he has performed and recorded with Loren Schoenberg, Willie Colon, Reggie Workman and Ray Anderson among many others. Lyrical and edgy, Rafi is joined here by verteran choro master Anat Cohen and a large ensemble of horns and strings for a beautiful program of New Jewish originals. Lush, driving and utterly delightful!
 
Состав
Anat Cohen: Clarinet
Avishai Cohen: Trumpet
Daniel Freedman: Drums
Rafi Malkiel: Trombone, Euphonium, Tuba, Aguaphoniums
Anthony Carrillo: Congas, Bongo, Clave
Jack Glottman: Piano
Nestor Gómez: Percussion, Water, Aguaphonium
Mauricio Herrera: Congas, Timbales
Dave Hertzberg: Bass
Chris Karlic: Bass Clarinet, Tenor Saxophone
Benny Koonyevsky: Percussion
Itai Kriss: Flute
Pablo Mayor: Piano
Shane Shanahan: Percussion, Water
Gili Sharett: Bassoon
Any questions -> support@pro-jazz.com. По всем вопросам пишите -> support@pro-jazz.com
23:02
110
Нет комментариев. Ваш будет первым!