Вы используете незарегистрированную версию компонента "Вкладки"!

Поиск

(Klezmer Jazz) Artichaut Orkestra - T For Teresa - 2011, APE (tracks+.cue), lossless

(Klezmer Jazz) Artichaut Orkestra - T For Teresa - 2011, APE (tracks+.cue), lossless
Треклист:
Artichaut Orkestra / T For Teresa
Жанр: Klezmer Jazz
Страна-производитель диска: US
Год издания диска: 2011
Издатель (лейбл): Tzadik
Номер по каталогу: #8161
Аудиокодек: APE (*.ape)
Тип рипа: tracks+.cue
Битрейт аудио: lossless
Продолжительность: 43:30
Источник (релизер): Aeacos Спасибо!
Наличие сканов в содержимом раздачи: да
Треклист:
1. Le T De Therese - 7:41
2. La Cloche Qui Chose - 5:46
3. Gavotte N°2 (BWV 995) - 7:23
4. Cirquenscie - 5:07
5. Interlude - 1:05
6. Byzance - 6:20
7. Facon Puzzle - 5:43
8. La Grosse Pomme - 4:21
 
Лог создания рипа
Exact Audio Copy V1.0 beta 3 from 29. August 2011
EAC extraction logfile from 10. March 2012, 18:20
Artichaut Orkestra / T For Teresa
Used drive : PBDS DVD+-RW DS-8W1P Adapter: 0 ID: 0
Read mode : Secure
Utilize accurate stream : Yes
Defeat audio cache : Yes
Make use of C2 pointers : No
Read offset correction : 594
Overread into Lead-In and Lead-Out : No
Fill up missing offset samples with silence : Yes
Delete leading and trailing silent blocks : No
Null samples used in CRC calculations : Yes
Used interface : Native Win32 interface for Win NT & 2000
Gap handling : Appended to previous track
Used output format : Internal WAV Routines
Sample format : 44.100 Hz; 16 Bit; Stereo
TOC of the extracted CD
Track | Start | Length | Start sector | End sector
---------------------------------------------------------
1 | 0:00.00 | 7:41.19 | 0 | 34593
2 | 7:41.19 | 5:46.31 | 34594 | 60574
3 | 13:27.50 | 7:23.22 | 60575 | 93821
4 | 20:50.72 | 5:07.03 | 93822 | 116849
5 | 25:58.00 | 1:05.63 | 116850 | 121787
6 | 27:03.63 | 6:20.21 | 121788 | 150308
7 | 33:24.09 | 5:43.60 | 150309 | 176093
8 | 39:07.69 | 4:21.02 | 176094 | 195670
Track 1
Filename F:\Upload\Artichaut Orkestra - T for Teresa (2011) Lossless\01 Le T De Thérèse.wav
Pre-gap length 0:00:02.00
Peak level 96.6 %
Extraction speed 1.1 X
Track quality 100.0 %
Test CRC 1AE584FC
Copy CRC 1AE584FC
Track not present in AccurateRip database
Copy OK
Track 2
Filename F:\Upload\Artichaut Orkestra - T for Teresa (2011) Lossless\02 La Cloche Qui Chose.wav
Peak level 96.6 %
Extraction speed 1.2 X
Track quality 100.0 %
Test CRC 58AA6D33
Copy CRC 58AA6D33
Track not present in AccurateRip database
Copy OK
Track 3
Filename F:\Upload\Artichaut Orkestra - T for Teresa (2011) Lossless\03 Gavotte N° 2 (BWV 995).wav
Peak level 96.6 %
Extraction speed 1.4 X
Track quality 100.0 %
Test CRC EF21BD1D
Copy CRC EF21BD1D
Track not present in AccurateRip database
Copy OK
Track 4
Filename F:\Upload\Artichaut Orkestra - T for Teresa (2011) Lossless\04 Cirquenscie.wav
Peak level 96.6 %
Extraction speed 1.5 X
Track quality 100.0 %
Test CRC 007D83FC
Copy CRC 007D83FC
Track not present in AccurateRip database
Copy OK
Track 5
Filename F:\Upload\Artichaut Orkestra - T for Teresa (2011) Lossless\05 Interlude.wav
Peak level 50.5 %
Extraction speed 1.1 X
Track quality 100.0 %
Test CRC B08EDBA3
Copy CRC B08EDBA3
Track not present in AccurateRip database
Copy OK
Track 6
Filename F:\Upload\Artichaut Orkestra - T for Teresa (2011) Lossless\06 Byzance.wav
Peak level 96.6 %
Extraction speed 1.7 X
Track quality 100.0 %
Test CRC 18D528F0
Copy CRC 18D528F0
Track not present in AccurateRip database
Copy OK
Track 7
Filename F:\Upload\Artichaut Orkestra - T for Teresa (2011) Lossless\07 Façon Puzzle.wav
Peak level 96.6 %
Extraction speed 1.7 X
Track quality 100.0 %
Test CRC 2A8D8E15
Copy CRC 2A8D8E15
Track not present in AccurateRip database
Copy OK
Track 8
Filename F:\Upload\Artichaut Orkestra - T for Teresa (2011) Lossless\08 La Grosse Pomme.wav
Peak level 96.6 %
Extraction speed 1.7 X
Track quality 100.0 %
Test CRC 2788B71D
Copy CRC 2788B71D
Track not present in AccurateRip database
Copy OK
None of the tracks are present in the AccurateRip database
No errors occurred
End of status report
 
Содержание индексной карты (.CUE)
REM GENRE Jazz
REM DATE 2011
REM DISCID 5E0A3008
REM COMMENT "ExactAudioCopy v1.0b3"
PERFORMER "Artichaut Orkestra"
TITLE "T For Teresa"
FILE "01 Le T De Therese.wav" WAVE
TRACK 01 AUDIO
TITLE "Le T De Therese"
PERFORMER "Artichaut Orkestra"
INDEX 01 00:00:00
FILE "02 La Cloche Qui Chose.wav" WAVE
TRACK 02 AUDIO
TITLE "La Cloche Qui Chose"
PERFORMER "Artichaut Orkestra"
INDEX 01 00:00:00
FILE "03 Gavotte N° 2 (BWV 995).wav" WAVE
TRACK 03 AUDIO
TITLE "Gavotte N° 2 (BWV 995)"
PERFORMER "Artichaut Orkestra"
INDEX 01 00:00:00
FILE "04 Cirquenscie.wav" WAVE
TRACK 04 AUDIO
TITLE "Cirquenscie"
PERFORMER "Artichaut Orkestra"
INDEX 01 00:00:00
FILE "05 Interlude.wav" WAVE
TRACK 05 AUDIO
TITLE "Interlude"
PERFORMER "Artichaut Orkestra"
INDEX 01 00:00:00
FILE "06 Byzance.wav" WAVE
TRACK 06 AUDIO
TITLE "Byzance"
PERFORMER "Artichaut Orkestra"
INDEX 01 00:00:00
FILE "07 Facon Puzzle.wav" WAVE
TRACK 07 AUDIO
TITLE "Facon Puzzle"
PERFORMER "Artichaut Orkestra"
INDEX 01 00:00:00
FILE "08 La Grosse Pomme.wav" WAVE
TRACK 08 AUDIO
TITLE "La Grosse Pomme"
PERFORMER "Artichaut Orkestra"
INDEX 01 00:00:00
 
Об альбоме (сборнике)
Featuring four young musicians of diverse artistic backgrounds, the Artichaut Orkestra is a fabulous new ensemble out of Toulouse, France. Led by a disciple of the great modern klezmer David Krakauer, they brilliantly mix jazz, klezmer and classical music, blending the energy of rock with the unpredictable creativity of improvisation. Their debut recording presents eight original compositions of delicacy, strength and a touch of madness. Original new Jewish music from a new generation of 21st century klezmers.
 
Состав
Camille Artichaut: Clarinet
Frederic Petitprez: Drums, Percussion
Sebastien Rideau: Electric Guitar, Effects
Pierre-Emmanuel Roubet: Accordion, Voice
Any questions -> support@pro-jazz.com. По всем вопросам пишите -> support@pro-jazz.com
23:01
153
Нет комментариев. Ваш будет первым!