Вы используете незарегистрированную версию компонента "Вкладки"!

Поиск

(Modern Creative / Post-Bop) Todd Sickafoose - Tiny Resistors - 2008, FLAC (tracks+.cue), lossless

(Modern Creative / Post-Bop) Todd Sickafoose - Tiny Resistors - 2008, FLAC (tracks+.cue), lossless
Треклист:
Todd Sickafoose - Tiny Resistors
Жанр: Modern Creative / Post-Bop
Год выпуска диска: 2008
Производитель диска: US (Cryptogramophone Records) [CG138]
Аудио кодек: FLAC
Тип рипа: tracks+.cue
Битрейт аудио: lossless
Продолжительность: 68:21
Трэклист:
Shane Endsley - trumpet
Ben Wendel - tenor sax, bassoon
Alan Ferber - trombone
Skerik - baritone sax
Adam Levy - guitar, acoustic guitar
Mike Gamble - guitar, effects
Allison Miller - drums, percussion
Simon Lott - drums, percussion
Todd Sickafoose - acoustic & electric bass, piano, wurlitzer, vibraphone, marimba, bells, celeste, accordion
Andrew Bird - violin & looping, whistling
Ani DiFranco - voice, telephone mic, electric ukelele
1. Future Flora
2. Invisible Ink, Revealed
3. Bye Bye Bees
4. Pianos of the 9th Ward
5. Everyone is Going
6. Cloud of Dust
7. Warm Stone
8. Paper Trombone
9. Whistle
10. Tiny Resistors
11. Barnacle
 
.log
Exact Audio Copy V0.99 prebeta 4 from 23. January 2008
EAC extraction logfile from 13. December 2008, 16:37
Todd Sickafoose / Tiny Resistors
Used drive : PIONEER DVD-RW DVR-110D Adapter: 0 ID: 1
Read mode : Secure
Utilize accurate stream : Yes
Defeat audio cache : Yes
Make use of C2 pointers : No
Read offset correction : 48
Overread into Lead-In and Lead-Out : No
Fill up missing offset samples with silence : Yes
Delete leading and trailing silent blocks : No
Null samples used in CRC calculations : Yes
Used interface : Native Win32 interface for Win NT & 2000
Gap handling : Appended to previous track
Used output format : User Defined Encoder
Selected bitrate : 768 kBit/s
Quality : High
Add ID3 tag : No
Command line compressor : C:\Program Files\Exact Audio Copy\FLAC\FLAC.EXE
Additional command line options : -6 -V -T "ARTIST=%a" -T "TITLE=%t" -T "ALBUM=%g" -T "DATE=%y" -T "TRACKNUMBER=%n" -T "GENRE=%m" -T "COMMENT=%e" %s -o %d
TOC of the extracted CD
Track | Start | Length | Start sector | End sector
---------------------------------------------------------
1 | 0:00.00 | 6:26.60 | 0 | 29009
2 | 6:26.60 | 5:08.54 | 29010 | 52163
3 | 11:35.39 | 10:42.59 | 52164 | 100372
4 | 22:18.23 | 6:06.17 | 100373 | 127839
5 | 28:24.40 | 8:02.13 | 127840 | 164002
6 | 36:26.53 | 6:09.21 | 164003 | 191698
7 | 42:35.74 | 4:46.56 | 191699 | 213204
8 | 47:22.55 | 6:58.72 | 213205 | 244626
9 | 54:21.52 | 3:29.61 | 244627 | 260362
10 | 57:51.38 | 6:45.11 | 260363 | 290748
11 | 64:36.49 | 3:50.43 | 290749 | 308041
Track 1
Filename D:\EACrips\Todd Sickafoose - 2008 - Tiny Resistors\01 - Future Flora.wav
Pre-gap length 0:00:02.00
Peak level 100.0 %
Track quality 100.0 %
Test CRC 2CD40FC5
Copy CRC 2CD40FC5
Track not present in AccurateRip database
Copy OK
Track 2
Filename D:\EACrips\Todd Sickafoose - 2008 - Tiny Resistors\02 - Invisible Ink, Revealed.wav
Peak level 98.8 %
Track quality 100.0 %
Test CRC 26054F5D
Copy CRC 26054F5D
Track not present in AccurateRip database
Copy OK
Track 3
Filename D:\EACrips\Todd Sickafoose - 2008 - Tiny Resistors\03 - Bye Bye Bees.wav
Peak level 100.0 %
Track quality 100.0 %
Test CRC 41443AFD
Copy CRC 41443AFD
Track not present in AccurateRip database
Copy OK
Track 4
Filename D:\EACrips\Todd Sickafoose - 2008 - Tiny Resistors\04 - Pianos of the 9th Ward.wav
Peak level 98.4 %
Track quality 100.0 %
Test CRC B7E3E67D
Copy CRC B7E3E67D
Track not present in AccurateRip database
Copy OK
Track 5
Filename D:\EACrips\Todd Sickafoose - 2008 - Tiny Resistors\05 - Everyone is Going.wav
Peak level 99.5 %
Track quality 100.0 %
Test CRC 7E35AA29
Copy CRC 7E35AA29
Track not present in AccurateRip database
Copy OK
Track 6
Filename D:\EACrips\Todd Sickafoose - 2008 - Tiny Resistors\06 - Cloud of Dust.wav
Peak level 99.5 %
Track quality 99.9 %
Test CRC F0B505CB
Copy CRC F0B505CB
Track not present in AccurateRip database
Copy OK
Track 7
Filename D:\EACrips\Todd Sickafoose - 2008 - Tiny Resistors\07 - Warm Stone.wav
Peak level 100.0 %
Track quality 100.0 %
Test CRC B577D443
Copy CRC B577D443
Track not present in AccurateRip database
Copy OK
Track 8
Filename D:\EACrips\Todd Sickafoose - 2008 - Tiny Resistors\08 - Paper Trombones.wav
Peak level 100.0 %
Track quality 100.0 %
Test CRC B85658A2
Copy CRC B85658A2
Track not present in AccurateRip database
Copy OK
Track 9
Filename D:\EACrips\Todd Sickafoose - 2008 - Tiny Resistors\09 - Whistle.wav
Peak level 98.3 %
Track quality 100.0 %
Test CRC 15F80DB7
Copy CRC 15F80DB7
Track not present in AccurateRip database
Copy OK
Track 10
Filename D:\EACrips\Todd Sickafoose - 2008 - Tiny Resistors\10 - Tiny Resistors.wav
Peak level 100.0 %
Track quality 100.0 %
Test CRC 8C09339E
Copy CRC 8C09339E
Track not present in AccurateRip database
Copy OK
Track 11
Filename D:\EACrips\Todd Sickafoose - 2008 - Tiny Resistors\11 - Barnacle.wav
Peak level 98.3 %
Track quality 100.0 %
Test CRC 1FEE271D
Copy CRC 1FEE271D
Track not present in AccurateRip database
Copy OK
None of the tracks are present in the AccurateRip database
No errors occurred
End of status report
Any questions -> support@pro-jazz.com. По всем вопросам пишите -> support@pro-jazz.com
13:32
140
Нет комментариев. Ваш будет первым!