Вы используете незарегистрированную версию компонента "Вкладки"!

Поиск

(Avant Garde) Derek Bailey, John Zorn, William Parker - Harras - 1995, APE (image+.cue), lossless

(Avant Garde) Derek Bailey, John Zorn, William Parker - Harras - 1995, APE (image+.cue), lossless
Треклист:
Derek Bailey, John Zorn, William Parker - Harras
Жанр: Avant Garde
Год выпуска диска: 1995
Производитель диска: Япония
Аудио кодек: APE
Тип рипа: image+.cue
Битрейт аудио: lossless
Продолжительность: 55:19
Трэклист:
1. Morning Harras 10:19
2. Noon Harras 8:59
3. Evening Harras 36:01
Derek Bailey guitar
John Zorn sax
William Parker bass
Доп. информация: Recorded live at the Knitting Factory, NYC
 
Отчёт EAC
Exact Audio Copy V0.99 prebeta 4 from 23. January 2008
Отчёт EAC об извлечении, выполненном 15. августа 2009, 1:42
Derek Bailey, John Zorn, William Parker / Harras
Дисковод: ASUS DRW-20B1LT Adapter: 0 ID: 0
Режим чтения : Достоверность
Использование точного потока : Да
Отключение кэша аудио : Да
Использование указателей C2 : Нет
Коррекция смещения при чтении : 6
Способность читать области Lead-in и Lead-out : Нет
Заполнение пропущенных сэмплов тишиной : Да
Удаление блоков с тишиной в начале и конце : Нет
При вычислениях CRC использовались нулевые сэмплы : Да
Интерфейс : Установленный внешний ASPI-интерфейс
Выходной формат : Внутренние WAV-операции
Формат сэмплов : 44.100 Гц; 16 бит; стерео
TOC извлечённого CD
Трек | Старт | Длительность | Начальный сектор | Конечный сектор
---------------------------------------------------------------------
1 | 0:00.00 | 10:18.50 | 0 | 46399
2 | 10:18.50 | 8:59.10 | 46400 | 86834
3 | 19:17.60 | 36:00.65 | 86835 | 248899
Характеристики диапазона извлечения и сообщения об ошибках
Выбранный диапазон
Имя файла D:\черновики\harras\Derek Bailey, John Zorn, William Parker - Harras.wav
Пиковый уровень 99.3 %
Качество диапазона 99.9 %
CRC теста DBDA8FA1
CRC копии DBDA8FA1
Копирование... OK
Ошибок не произошло
AccurateRip: сводка
Трек 1 точное извлечение (доверие 5) [90F51C2B]
Трек 2 точное извлечение (доверие 5) [3E78BE2D]
Трек 3 точное извлечение (доверие 4) [7557840C]
Все треки извлечены точно
Конец отчёта
Derek Bailey на rutracker.org
Any questions -> support@pro-jazz.com. По всем вопросам пишите -> support@pro-jazz.com
13:33
170
Нет комментариев. Ваш будет первым!