Вы используете незарегистрированную версию компонента "Вкладки"!

Поиск

(Modern Creative / Post-Bop) Thomas Chapin Trio - Ride - 2006, FLAC (image+.cue), lossless

(Modern Creative / Post-Bop) Thomas Chapin Trio - Ride - 2006, FLAC (image+.cue), lossless
Треклист:
Thomas Chapin Trio - Ride
Жанр: Modern Creative / Post-Bop
Год выпуска диска: 2006
Производитель диска: USA (Playscape Recordings PSR#071595)
Аудио кодек: FLAC
Тип рипа: image+.cue
Битрейт аудио: lossless
Продолжительность: 1:13:32
Thomas Chapin alto & soprano saxophones, flute
Mario Pavone bass
Michael Sarin drums
1. Anima
2. Pet Scorpion
3. Night Bird Song
4. Aeolus
5. Bad Birdie
6. Changes Two Tires
7. Ticket To Ride
Recorded live at North Sea Jazz Festival July 15, 1995

 
EAC Report
Exact Audio Copy V0.99 prebeta 4 from 23. January 2008
EAC extraction logfile from 6. April 2009, 23:44
Thomas Chapin Trio / Ride
Used drive : TSSTcorpCD/DVDW SH-S182M Adapter: 2 ID: 0
Read mode : Secure
Utilize accurate stream : Yes
Defeat audio cache : Yes
Make use of C2 pointers : No
Read offset correction : 6
Overread into Lead-In and Lead-Out : No
Fill up missing offset samples with silence : Yes
Delete leading and trailing silent blocks : No
Null samples used in CRC calculations : Yes
Used interface : Installed external ASPI interface
Used output format : User Defined Encoder
Selected bitrate : 1024 kBit/s
Quality : High
Add ID3 tag : No
Command line compressor : C:\Program Files\Exact Audio Copy\FLAC\FLAC.EXE
Additional command line options : -8 -V -T "ARTIST=%a" -T "TITLE=%t" -T "ALBUM=%g" -T "DATE=%y" -T "TRACKNUMBER=%n" -T "GENRE=%m" -T "COMMENT=%e" %s -o %d
TOC of the extracted CD
Track | Start | Length | Start sector | End sector
---------------------------------------------------------
1 | 0:00.00 | 17:28.09 | 0 | 78608
2 | 17:28.09 | 8:51.42 | 78609 | 118475
3 | 26:19.51 | 12:57.64 | 118476 | 176814
4 | 39:17.40 | 11:19.42 | 176815 | 227781
5 | 50:37.07 | 8:54.28 | 227782 | 267859
6 | 59:31.35 | 6:49.52 | 267860 | 298586
7 | 66:21.12 | 7:10.42 | 298587 | 330878
Range status and errors
Selected range
Filename C:\Documents and Settings\Igor\My Documents\My Music\eac\Thomas Chapin Trio - Ride.wav
Peak level 97.5 %
Range quality 100.0 %
Test CRC 43355F6B
Copy CRC 43355F6B
Copy OK
No errors occurred
AccurateRip summary
Track 1 not present in database
Track 2 not present in database
Track 3 not present in database
Track 4 not present in database
Track 5 not present in database
Track 6 not present in database
Track 7 not present in database
None of the tracks are present in the AccurateRip database
End of status report
По всем вопросам пишите личное сообщение пользователю M0p94ok.
09:46
135
Нет комментариев. Ваш будет первым!