Вы используете незарегистрированную версию компонента "Вкладки"!

Поиск

(Avant-Garde Experimental) The One Ensemble Of Daniel Padden - The Owl Of Fives - 2003, APE (image+.cue), lossless

(Avant-Garde Experimental) The One Ensemble Of Daniel Padden - The Owl Of Fives - 2003, APE (image+.cue), lossless
Треклист:
The One Ensemble Of Daniel Padden - The Owl Of Fives
Жанр:Avant-Garde Jazz Experimental
Год выпуска диска: 2003
Производитель диска: Россия
Аудио кодек: APE
Тип рипа: image+.cue
Битрейт аудио: lossless
Продолжительность: 46:01
Трэклист:
1 preamble
2 farewell my porcupine
3 gong farm
4 singing norway to sleep
5 the opposite of earthquakes
6 still flinging clowns
7 baltic chunks of antiquity
8 early music of the morning
9 haiku cigarette
10 shambles
11 fire and elephants
12 clown reprise
Доп. информация:
 
Отчёт EAC
Exact Audio Copy V0.99 prebeta 4 from 23. January 2008
Отчёт EAC об извлечении, выполненном 8. апреля 2009, 10:25
the one ensemble of daniel padden / the owl of fives
Дисковод: _NEC DVD_RW ND-3550A Adapter: 0 ID: 0
Режим чтения : Достоверность
Использование точного потока : Да
Отключение кэша аудио : Да
Использование указателей C2 : Нет
Коррекция смещения при чтении : 48
Способность читать области Lead-in и Lead-out : Нет
Заполнение пропущенных сэмплов тишиной : Да
Удаление блоков с тишиной в начале и конце : Нет
При вычислениях CRC использовались нулевые сэмплы : Да
Интерфейс : Установленный внешний ASPI-интерфейс
Выходной формат : Внутренние WAV-операции
Формат сэмплов : 44.100 Гц; 16 бит; стерео
TOC извлечённого CD
Трек | Старт | Длительность | Начальный сектор | Конечный сектор
---------------------------------------------------------------------
1 | 0:00.00 | 2:07.30 | 0 | 9554
2 | 2:07.30 | 2:26.34 | 9555 | 20538
3 | 4:33.64 | 3:52.40 | 20539 | 37978
4 | 8:26.29 | 2:22.65 | 37979 | 48693
5 | 10:49.19 | 3:29.37 | 48694 | 64405
6 | 14:18.56 | 7:42.26 | 64406 | 99081
7 | 22:01.07 | 2:58.59 | 99082 | 112490
8 | 24:59.66 | 6:09.74 | 112491 | 140239
9 | 31:09.65 | 3:33.49 | 140240 | 156263
10 | 34:43.39 | 2:31.07 | 156264 | 167595
11 | 37:14.46 | 4:57.07 | 167596 | 189877
12 | 42:11.53 | 3:49.44 | 189878 | 207096
Характеристики диапазона извлечения и сообщения об ошибках
Выбранный диапазон
Имя файла D:\001-torrent\the one ensemble of daniel padden - the owl of fives\the one ensemble of daniel padden - the owl of fives.wav
Пиковый уровень 96.6 %
Качество диапазона 99.9 %
CRC копии 016FFFB1
Копирование... OK
Ошибок не произошло
Конец отчёта
 
спектр
 
информация
Рип мой, к сожалению,(рискуя навлечь "сомнительно") с болванки. В нете мелькали сравнения с Wyatt, Faust, Kronos Quartet... От себя добавил бы, что любителям Zorn должно понравиться. Если кто ещё выложит Daniel Padden с удовольствием скачаю.
Переслушал - скорее - минимализм (Tiersen,Comelade,Lars Hollmer,Moondog,Jellyfish Kiss).
Any questions -> support@pro-jazz.com. По всем вопросам пишите -> support@pro-jazz.com
09:47
152
Нет комментариев. Ваш будет первым!