Вы используете незарегистрированную версию компонента "Вкладки"!

Поиск

(Modern Creative / Modern Free / Post-Bop) Peter Evans Quartet - Live in Lisbon - 2010, FLAC (image+.cue), lossless

(Modern Creative / Modern Free / Post-Bop) Peter Evans Quartet - Live in Lisbon - 2010, FLAC (image+.cue), lossless
Треклист:
Peter Evans Quartet - Live in Lisbon

Жанр: Modern Creative / Modern Free / Post-Bop
Год выпуска диска: 2010
Производитель диска: Clean Feed CF173; Portugal
Аудио кодек: FLAC
Тип рипа: image+.cue
Битрейт аудио: lossless
Продолжительность: 1:02:49
Peter Evans: trumpet
Ricardo Gallo: piano
Tom Blancarte: double bass
Kevin Shea: drums
1. Introduction
2. All
3. Interlude 1
4. Latticework
5. Palimpsest
6. Interlude 2
7. What
8. Interlude 3
9. For ICP
Recorded August 8 at the Jazz em Agosto Festival.
 
Clean Feed
Recorded at the Jazz em Agosto Festival in 2009, Live in Lisbon proposes another way to deal with the old American standards. Instead of passively reproducing the song formats, trumpeter extraordinaire Peter Evans uses its compositional elements as "found materials". And yes, there's some analogies with the visual artist Marcel Duchamp's "ready mades". Those elements can be the tempos, the harmonies, the melodic phrases, but taken apart, deconstructed and gathered in different patterns, in order to enhance improvisation and to liberate choices during the performative process.
For instance, "All The Things You Are" by Jerome Kern, "Lush Life" by Billy Strayhorn", "Duke Ellington's Sound of Love" by Charles Mingus, and "What Is This Thing Called Love" by Cole Porter are subjected to this procedure. In consequence, each piece functions like a puzzle being assembled moment by moment - you can recognize the inner materials or not, but they're always present in some form. This is not an attempt to turn simple things complex, but to achieve a looser approach in the context of the centuries old equation between written (by historic masters) and spontaneous collective composition (with contributions from Ricardo Gallo, Tom Blancarte, and Kevin Shea). In his liner notes, Evans says it all: "It is great fun to see what elements of surprise we can squeeze out of something that, on its surface, may seem very familiar." In truth, simplicity is the name of the game here played, and it emerges in various levels, from the most intriguing to the unexpected. ~ Clean Feed
 
EAC Report
Exact Audio Copy V0.99 prebeta 4 from 23. January 2008
EAC extraction logfile from 3. July 2010, 0:30
Peter Evans Quartet / Live in Lisbon
Used drive : TSSTcorpCD/DVDW SH-S182M Adapter: 2 ID: 1
Read mode : Secure
Utilize accurate stream : Yes
Defeat audio cache : Yes
Make use of C2 pointers : No
Read offset correction : 6
Overread into Lead-In and Lead-Out : No
Fill up missing offset samples with silence : Yes
Delete leading and trailing silent blocks : No
Null samples used in CRC calculations : Yes
Used interface : Installed external ASPI interface
Used output format : User Defined Encoder
Selected bitrate : 1024 kBit/s
Quality : High
Add ID3 tag : No
Command line compressor : C:\Program Files\Exact Audio Copy\Flac\flac.exe
Additional command line options : -6 -V -T "ARTIST=%a" -T "TITLE=%t" -T "ALBUM=%g" -T "DATE=%y" -T "TRACKNUMBER=%n" -T "GENRE=%m" -T "COMMENT=EAC FLAC -6" %s
TOC of the extracted CD
Track | Start | Length | Start sector | End sector
---------------------------------------------------------
1 | 0:00.00 | 2:36.65 | 0 | 11764
2 | 2:36.65 | 11:35.54 | 11765 | 63943
3 | 14:12.44 | 1:51.12 | 63944 | 72280
4 | 16:03.56 | 10:09.25 | 72281 | 117980
5 | 26:13.06 | 5:41.67 | 117981 | 143622
6 | 31:54.73 | 4:58.30 | 143623 | 166002
7 | 36:53.28 | 12:41.21 | 166003 | 223098
8 | 49:34.49 | 5:02.57 | 223099 | 245805
9 | 54:37.31 | 8:11.52 | 245806 | 282682
Range status and errors
Selected range
Filename C:\Users\Igor\Music\eac\Peter Evans Quartet - Live in Lisbon.wav
Peak level 87.6 %
Range quality 100.0 %
Test CRC 52B32B69
Copy CRC 52B32B69
Copy OK
No errors occurred
AccurateRip summary
Track 1 not present in database
Track 2 not present in database
Track 3 not present in database
Track 4 not present in database
Track 5 not present in database
Track 6 not present in database
Track 7 not present in database
Track 8 not present in database
Track 9 not present in database
None of the tracks are present in the AccurateRip database
End of status report

рип собственный
Any questions -> support@pro-jazz.com. По всем вопросам пишите -> support@pro-jazz.com
02:55
145
Нет комментариев. Ваш будет первым!