Вы используете незарегистрированную версию компонента "Вкладки"!

Поиск

(Free Improvisation / Avant-Garde / Modern Creative) Tom Rainey Trio - Pool School - 2010, FLAC (image+.cue), lossless

(Free Improvisation / Avant-Garde / Modern Creative) Tom Rainey Trio - Pool School - 2010, FLAC (image+.cue), lossless
Треклист:
Tom Rainey Trio - Pool School

Жанр: Free Improvisation / Avant-Garde / Modern Creative
Год выпуска диска: Clean Feed CF185; 2010
Производитель диска: Portugal
Аудио кодек: FLAC
Тип рипа: image+.cue
Битрейт аудио: lossless
Продолжительность: 58:16
Ingrid Laubrock: tenor saxophone, alto saxophone
Mary Halvorson: guitar
Tom Rainey: drums
1. Home Opener
2. Calico Road
3. Three Bag Mary
4. Pool School
5. Om on the Range
6. Coney
7. More Mesa
8. Crinkles
9. Semi-Bozo
10. Heymana
11. Clean Feat
12. Pacification
Recorded direct to two tracks at Systems 2.
 
Clean Feed
Stop the presses! This is not only one record amongst thousands, it's the very first with Tom Rainey's name on the cover. Yes, what everybody wished for is finally happening: the drummer who piqued our common interest behind such a variey of artists as John Abercrombie, Ray Anderson, Jane Ira Bloom, Ted Curson, Tim Berne, Mark Helias, Fred Hersch, Andy Laster, Simon Nabatov, Joe Lovano, Carmen McRae, Tony Malaby, Matthias Schubert, and Ken Werner is leading his own band, and the music inside sounds nothing like anything recorded by Rainey as a sideman.
Pool School confirms that there was always a composer handling the drumsticks: the music here may be organic, because that's the nature of his playing, but it's also surprisingly elaborate, elegant, even refined, if not in a way that can be imagined. Guitarist Mary Halvorson and saxophonist Ingrid Laubrock are both known, very much like Rainey himself, for their ability to avoid obvious choices for ones that suit their adventurous personalities. If that means sounding experimental or straight-ahead, jazz or rock-oriented - the music always benefits from it. Take note: in years to come, this CD will be considered a historic mark. ~ Clean Feed
 
EAC Report
Exact Audio Copy V0.99 prebeta 4 from 23. January 2008
EAC extraction logfile from 3. July 2010, 0:49
Tom Rainey Trio / Pool School
Used drive : TSSTcorpCD/DVDW SH-S182M Adapter: 2 ID: 1
Read mode : Secure
Utilize accurate stream : Yes
Defeat audio cache : Yes
Make use of C2 pointers : No
Read offset correction : 6
Overread into Lead-In and Lead-Out : No
Fill up missing offset samples with silence : Yes
Delete leading and trailing silent blocks : No
Null samples used in CRC calculations : Yes
Used interface : Installed external ASPI interface
Used output format : User Defined Encoder
Selected bitrate : 1024 kBit/s
Quality : High
Add ID3 tag : No
Command line compressor : C:\Program Files\Exact Audio Copy\Flac\flac.exe
Additional command line options : -6 -V -T "ARTIST=%a" -T "TITLE=%t" -T "ALBUM=%g" -T "DATE=%y" -T "TRACKNUMBER=%n" -T "GENRE=%m" -T "COMMENT=EAC FLAC -6" %s
TOC of the extracted CD
Track | Start | Length | Start sector | End sector
---------------------------------------------------------
1 | 0:00.00 | 5:33.00 | 0 | 24974
2 | 5:33.00 | 5:34.53 | 24975 | 50077
3 | 11:07.53 | 3:41.64 | 50078 | 66716
4 | 14:49.42 | 5:07.43 | 66717 | 89784
5 | 19:57.10 | 4:21.44 | 89785 | 109403
6 | 24:18.54 | 5:57.63 | 109404 | 136241
7 | 30:16.42 | 5:34.24 | 136242 | 161315
8 | 35:50.66 | 3:25.50 | 161316 | 176740
9 | 39:16.41 | 7:17.48 | 176741 | 209563
10 | 46:34.14 | 4:05.68 | 209564 | 228006
11 | 50:40.07 | 3:58.45 | 228007 | 245901
12 | 54:38.52 | 3:36.73 | 245902 | 262174
Range status and errors
Selected range
Filename C:\Users\Igor\Music\eac\Tom Rainey Trio - Pool School.wav
Peak level 100.0 %
Range quality 100.0 %
Test CRC A8D4DA76
Copy CRC A8D4DA76
Copy OK
No errors occurred
AccurateRip summary
Track 1 not present in database
Track 2 not present in database
Track 3 not present in database
Track 4 not present in database
Track 5 not present in database
Track 6 not present in database
Track 7 not present in database
Track 8 not present in database
Track 9 not present in database
Track 10 not present in database
Track 11 not present in database
Track 12 not present in database
None of the tracks are present in the AccurateRip database
End of status report

рип собственный
Any questions -> support@pro-jazz.com. По всем вопросам пишите -> support@pro-jazz.com
02:55
131
Нет комментариев. Ваш будет первым!