Вы используете незарегистрированную версию компонента "Вкладки"!

Поиск

(Modern Creative) Lindsey Horner - Don't Count On Glory (feat. Marty Ehrlich, Bobby Previte, Uri Cain) - 2004, FLAC (image+.cue), lossless

(Modern Creative) Lindsey Horner - Don't Count On Glory (feat. Marty Ehrlich, Bobby Previte, Uri Cain) - 2004, FLAC (image+.cue), lossless
Треклист:
Lindsey Horner - Don't Count On Glory (feat. Marty Ehrlich, Bobby Previte, Uri Cain)
Жанр: Modern Creative
Год выпуска диска: 2005
Производитель диска: USA (Cadence CJR 1188)
Аудио кодек: FLAC
Тип рипа: image+.cue
Битрейт аудио: lossless
Продолжительность: 1:09:00
Lindsey Horner bass, baritone saxophone, bass clarinet, low whistle, tin whistle
Jeff Berman percussion
Uri Cain electric piano
Jim DiSpirito congas, percussion
Marty Ehrlich alto saxophone
Colter Harper guitar
Neal Kirkwood piano
Brian Lynch trumpet
Pete McCain classical guitar, guitar
Allison Miller drums, djembe
Ben Opie alto saxophone
Bobby Previte drums
Lou Stellute tenor saxophone
Eric Susoeff guitar
Dave Throckmorton drums
Lieven Venken drums
1. Last Look Rome
2. Don't Count on Glory
3. I Stand by Your Window
4. Gyp the Blood
5. Cuong Vu
6. Green Chimneys
7. Shadow Girl
8. Too, Too Blue
 
EAC Report
Exact Audio Copy V0.99 prebeta 4 from 23. January 2008
EAC extraction logfile from 14. March 2009, 22:01
Lindsey Horner / Don't Count on Glory
Used drive : TSSTcorpCD/DVDW SH-S182M Adapter: 2 ID: 0
Read mode : Secure
Utilize accurate stream : Yes
Defeat audio cache : Yes
Make use of C2 pointers : No
Read offset correction : 6
Overread into Lead-In and Lead-Out : No
Fill up missing offset samples with silence : Yes
Delete leading and trailing silent blocks : No
Null samples used in CRC calculations : Yes
Used interface : Installed external ASPI interface
Used output format : User Defined Encoder
Selected bitrate : 1024 kBit/s
Quality : High
Add ID3 tag : No
Command line compressor : C:\Program Files\Exact Audio Copy\FLAC\FLAC.EXE
Additional command line options : -8 -V -T "ARTIST=%a" -T "TITLE=%t" -T "ALBUM=%g" -T "DATE=%y" -T "TRACKNUMBER=%n" -T "GENRE=%m" -T "COMMENT=%e" %s -o %d
TOC of the extracted CD
Track | Start | Length | Start sector | End sector
---------------------------------------------------------
1 | 0:00.00 | 7:02.23 | 0 | 31672
2 | 7:02.23 | 13:32.27 | 31673 | 92599
3 | 20:34.50 | 7:19.55 | 92600 | 125579
4 | 27:54.30 | 11:12.22 | 125580 | 176001
5 | 39:06.52 | 8:36.60 | 176002 | 214761
6 | 47:43.37 | 5:33.31 | 214762 | 239767
7 | 53:16.68 | 3:55.40 | 239768 | 257432
8 | 57:12.33 | 11:47.38 | 257433 | 310495
Range status and errors
Selected range
Filename C:\Documents and Settings\Igor\My Documents\My Music\eac\Lindsey Horner - Don't Count on Glory.wav
Peak level 99.9 %
Range quality 99.9 %
Test CRC B65DC4D9
Copy CRC B65DC4D9
Copy OK
No errors occurred
AccurateRip summary
Track 1 not present in database
Track 2 not present in database
Track 3 not present in database
Track 4 not present in database
Track 5 not present in database
Track 6 not present in database
Track 7 not present in database
Track 8 not present in database
None of the tracks are present in the AccurateRip database
End of status report
Any questions -> support@pro-jazz.com. По всем вопросам пишите -> support@pro-jazz.com
09:54
170
Нет комментариев. Ваш будет первым!