Вы используете незарегистрированную версию компонента "Вкладки"!

Поиск

(Avant-Garde Jazz) Barry Guy & London Jazz Composers' Orchestra - Theoria - 1991, FLAC (image+.cue), lossless

(Avant-Garde Jazz) Barry Guy & London Jazz Composers' Orchestra - Theoria - 1991, FLAC (image+.cue), lossless
Треклист:
Barry Guy & London Jazz Composers' Orchestra - Theoria
Жанр: Avant-Garde Jazz, Free Jazz
Год выпуска диска: 1991
Страна: United Kingdom
Производитель диска: Intakt Records
Аудио кодек: FLAC
Тип рипа: image+.cue
Битрейт аудио: lossless
Продолжительность: 00:57:50
Трэклист:
01- Theoria 1
02- Theoria 2
03- Theoria 3
04- Theoria 4
05- Theoria 5
Отчет:
 
Exact Audio Copy
Exact Audio Copy V0.99 prebeta 4 from 23. January 2008
Отчёт EAC об извлечении, выполненном 10. апреля 2009, 16:40
Barry Guy & London Jazz Composers' Orchestra / Theoria
Дисковод: Optiarc DVD RW AD-7201S Adapter: 4 ID: 2
Режим чтения : Достоверность
Использование точного потока : Да
Отключение кэша аудио : Да
Использование указателей C2 : Нет
Коррекция смещения при чтении : 48
Способность читать области Lead-in и Lead-out : Нет
Заполнение пропущенных сэмплов тишиной : Да
Удаление блоков с тишиной в начале и конце : Нет
При вычислениях CRC использовались нулевые сэмплы : Да
Интерфейс : Установленный внешний ASPI-интерфейс
Выходной формат : Пользовательский кодировщик
Выбранный битрейт : 768 kBit/s
Качество : Высокий
Добавление ID3-тэга : Нет
Утилита сжатия : C:\Program Files\Exact Audio Copy\FLAC\FLAC.EXE
Дополнительные параметры : -6 -V -T "ARTIST=%a" -T "TITLE=%t" -T "ALBUM=%g" -T "DATE=%y" -T "TRACKNUMBER=%n" -T "GENRE=%m" -T "COMMENT=%e" %s -o %d
TOC извлечённого CD
Трек | Старт | Длительность | Начальный сектор | Конечный сектор
---------------------------------------------------------------------
1 | 0:00.00 | 12:13.29 | 0 | 55003
2 | 12:13.29 | 7:48.59 | 55004 | 90162
3 | 20:02.13 | 7:21.04 | 90163 | 123241
4 | 27:23.17 | 13:27.12 | 123242 | 183778
5 | 40:50.29 | 17:00.36 | 183779 | 260314
Характеристики диапазона извлечения и сообщения об ошибках
Выбранный диапазон
Имя файла D:\Z Seeds\Barry Guy & London Jazz Composers' Orchestra - Theoria\Music\Barry Guy & London Jazz Composers' Orchestra - Theoria.wav
Пиковый уровень 94.8 %
Качество диапазона 100.0 %
CRC копии C532D980
Копирование... OK
Ошибок не произошло
Конец отчёта
 
Tau Analyzer

Доп. информация:
Any questions -> support@pro-jazz.com. По всем вопросам пишите -> support@pro-jazz.com
09:54
179
Нет комментариев. Ваш будет первым!