Вы используете незарегистрированную версию компонента "Вкладки"!

Поиск

(Modern Creative / Knitting Factory) James Emery / Iliad Quartet - Turbulence - 1991, FLAC (image+.cue), lossless

(Modern Creative / Knitting Factory) James Emery / Iliad Quartet - Turbulence - 1991, FLAC (image+.cue), lossless
Треклист:
James Emery / Iliad Quartet - Turbulence
Жанр: Modern Creative / Knitting Factory
Год выпуска диска: 1991
Производитель диска: USA (Knitting Factory KFW-106)
Аудио кодек: FLAC
Тип рипа: image+.cue
Битрейт аудио: lossless
Продолжительность: 1:08:43
James Emery guitar and guitar synthesizer
Marty Ehrlich soprano and alto saxophones, clarinet
Rob Schwimmer keyboards
Michael Formanek bass
Gerry Hemingway drums
1. March Oblique
2. One Eleven
3. Smoke Detector
4. Word For
5. As of Now
6. Ashiata
7. Double O.T.
8. Turbulence
9. Late, Sweet Light
10. Sonance Dance
11. Ebina Song / Bird's Eye

 
AMG Review
Guitarist James Emery is at the helm of another intense, on-the-outside group with The Illiad Quartet. Their ranks include multi-instrumentalist Marty Ehrlich, who can play soothing tones on soprano, fiery hard bop licks on alto or quasi-traditional on clarinet, as well as mix and match styles on all three. Keyboardist Rob Schwimmer is an adventurous player, as are bassist Michael Formanek and drummer Gerry Hemingway. The resulting hour-plus disc offers everything from short, funk-tinged snippets to surging dialogues, collectively improvised numbers and songs featuring rippling individual sections. It's a fine showcase for Emery to display his skills outside his customary group. ~ Ron Wynn, AMG
 
EAC Report
Exact Audio Copy V0.99 prebeta 4 from 23. January 2008
EAC extraction logfile from 21. February 2009, 14:27
James Emery / Iliad Quartet / Turbulence
Used drive : TSSTcorpCD/DVDW SH-S182M Adapter: 2 ID: 0
Read mode : Secure
Utilize accurate stream : Yes
Defeat audio cache : Yes
Make use of C2 pointers : No
Read offset correction : 6
Overread into Lead-In and Lead-Out : No
Fill up missing offset samples with silence : Yes
Delete leading and trailing silent blocks : No
Null samples used in CRC calculations : Yes
Used interface : Installed external ASPI interface
Used output format : User Defined Encoder
Selected bitrate : 1024 kBit/s
Quality : High
Add ID3 tag : No
Command line compressor : C:\Program Files\Exact Audio Copy\FLAC\FLAC.EXE
Additional command line options : -8 -V -T "ARTIST=%a" -T "TITLE=%t" -T "ALBUM=%g" -T "DATE=%y" -T "TRACKNUMBER=%n" -T "GENRE=%m" -T "COMMENT=%e" %s -o %d
TOC of the extracted CD
Track | Start | Length | Start sector | End sector
---------------------------------------------------------
1 | 0:00.33 | 5:53.42 | 33 | 26549
2 | 5:54.00 | 7:29.55 | 26550 | 60279
3 | 13:23.55 | 4:46.70 | 60280 | 81799
4 | 18:10.50 | 8:13.70 | 81800 | 118844
5 | 26:24.45 | 4:30.20 | 118845 | 139114
6 | 30:54.65 | 6:18.43 | 139115 | 167507
7 | 37:13.33 | 2:38.12 | 167508 | 179369
8 | 39:51.45 | 8:46.13 | 179370 | 218832
9 | 48:37.58 | 7:06.40 | 218833 | 250822
10 | 55:44.23 | 5:42.40 | 250823 | 276512
11 | 61:26.63 | 7:16.32 | 276513 | 309244
Range status and errors
Selected range
Filename C:\Documents and Settings\Igor\My Documents\My Music\eac\James Emery & Iliad Quartet - Turbulence.wav
Peak level 90.4 %
Range quality 99.9 %
Test CRC CD233179
Copy CRC CD233179
Copy OK
No errors occurred
AccurateRip summary
Track 1 not present in database
Track 2 not present in database
Track 3 not present in database
Track 4 not present in database
Track 5 not present in database
Track 6 not present in database
Track 7 not present in database
Track 8 not present in database
Track 9 not present in database
Track 10 not present in database
Track 11 not present in database
None of the tracks are present in the AccurateRip database
End of status report
Any questions -> support@pro-jazz.com. По всем вопросам пишите -> support@pro-jazz.com
09:13
166
Нет комментариев. Ваш будет первым!