Вы используете незарегистрированную версию компонента "Вкладки"!

Поиск

(Avant-Garde Jazz / Modern Creative) Vienna Art Orchestra (Lauren Newton) - The Minimalism of Erik Satie - 1989 [Hat Hut Records hat ART CD 6024], FLAC (tracks+.cue), lossless

(Avant-Garde Jazz / Modern Creative) Vienna Art Orchestra (Lauren Newton) - The Minimalism of Erik Satie - 1989 [Hat Hut Records hat ART CD 6024], FLAC (tracks+.cue), lossless
Треклист:
Vienna Art Orchestra - The Minimalism of Erik Satie
Жанр: Avant-Garde Jazz / Modern Creative
Страна-производитель диска: Switzerland
Год издания диска: 1989
Год записи: 1983, 1984
Издатель (лейбл): Hat Hut Records Ltd.
Номер по каталогу: hat ART CD 6024 now. series
Аудиокодек: FLAC (*.flac)
Тип рипа: tracks+.cue
Битрейт аудио: lossless
Продолжительность: 01:15:11
Источник (релизер): собственный рип с оригинального Audio CD
Наличие сканов в содержимом раздачи: да
Трэклист:
1. Reflections on Aubade** (02:56)
2. Reflections on Méditation**** (03:32)
3. Reflections on Sévère Réprimande* (02:55)
4. Reflections on Idylle* (03:58)
5. Gnossienne No. 3 by Erik Satie** (02:58)
6. Reflections on Gnossienne No. 2**** (04:23)
7. Reflections on Gnossienne No. 1**** (05:50)
8. Satie Ist Mir Im Traum 3x Nicht Erschienen** (06:21)
9. Vexations 1801*** (08:45)
10. Vexations 1611*** (09:37)
11. Vexations 2105*** (023:20)
Доп. информация:
Musicians:
Lauren NewtoN - voice
Karl (Bumi) Fian - trumpet, flugelhorn
Hannes Kottek - trumpet, flugelhorn
Christian Radovan - trombone
John Sass - tuba
Harry Sokal - sopranosax, tenorsax, flute
Wolfgang Puschnig - altosax, bassclarinet, flute, sopraninosax
Roman Schwaller - tenorsax, clarinet
Woody Schabata - vibes
Wolfgang Reisinger - gong, kalimba, tarabuka, triangle
Ima - tamboura on #8
Mathias Rüegg - leader, conductor, arranger
Two-track recording by Michael Kornhäusl on September 20*, 21** & 22***, 1983 and
March 14****, 1984 at Studio Kornhäusl, Vienne; Photo by Werner X.Uehlinger;
Cover art by Niklaus Troxler; Produced by Pia and Werner X.Uehlinger.
© 1989 Hat Hut Records Ltd.
Vienna Art Orchestra - The Minimalism of Erik Satie allmusic.com
Vienna Art Orchestra Official Site
Vienna Art Orchestra from Wikipedia, the free encyclopedia
Lauren Newton Official Site
Lauren Newton from Wikipedia, the free encyclopedia
 
... back ...
 
EAC extraction logfile from 18. July 2012, 14:53
Exact Audio Copy V1.0 beta 3 from 29. August 2011
EAC extraction logfile from 18. July 2012, 14:53
Vienna Art Orchestra / The Minimalism of Erik Satie
Used drive : Optiarc DVD RW AD-7260S Adapter: 3 ID: 0
Read mode : Secure
Utilize accurate stream : Yes
Defeat audio cache : Yes
Make use of C2 pointers : No
Read offset correction : 48
Overread into Lead-In and Lead-Out : No
Fill up missing offset samples with silence : Yes
Delete leading and trailing silent blocks : No
Null samples used in CRC calculations : Yes
Used interface : Native Win32 interface for Win NT & 2000
Gap handling : Appended to previous track
Used output format : User Defined Encoder
Selected bitrate : 128 kBit/s
Quality : High
Add ID3 tag : No
Command line compressor : C:\Program Files\Exact Audio Copy\Flac\flac.exe
Additional command line options : -V -8 -T "Genre=%genre%" -T "Artist=%artist%" -T "Title=%title%" -T "Album=%albumtitle%" -T "Date=%year%" -T "Tracknumber=%tracknr%" -T "Comment=%comment%" %source%
TOC of the extracted CD
Track | Start | Length | Start sector | End sector
---------------------------------------------------------
1 | 0:00.00 | 2:59.32 | 0 | 13456
2 | 2:59.32 | 3:34.53 | 13457 | 29559
3 | 6:34.10 | 2:57.30 | 29560 | 42864
4 | 9:31.40 | 4:01.22 | 42865 | 60961
5 | 13:32.62 | 2:59.63 | 60962 | 74449
6 | 16:32.50 | 4:25.67 | 74450 | 94391
7 | 20:58.42 | 5:53.40 | 94392 | 120906
8 | 26:52.07 | 6:23.35 | 120907 | 149666
9 | 33:15.42 | 8:51.60 | 149667 | 189551
10 | 42:07.27 | 9:44.40 | 189552 | 233391
11 | 51:51.67 | 23:20.08 | 233392 | 338399
Track 1
Filename E:\rip by readab\Vienna Art Orchestra - The Minimalism of Erik Satie (1989)\01 - Reflections On Aubade.wav
Pre-gap length 0:00:02.00
Peak level 68.4 %
Extraction speed 2.4 X
Track quality 100.0 %
Test CRC FC6A3631
Copy CRC FC6A3631
Accurately ripped (confidence 8) [70A6D3D7] (AR v1)
Copy OK
Track 2
Filename E:\rip by readab\Vienna Art Orchestra - The Minimalism of Erik Satie (1989)\02 - Reflections On Meditation.wav
Pre-gap length 0:00:02.62
Peak level 89.6 %
Extraction speed 2.7 X
Track quality 100.0 %
Test CRC 9E41106B
Copy CRC 9E41106B
Accurately ripped (confidence 8) [23A69E8C] (AR v1)
Copy OK
Track 3
Filename E:\rip by readab\Vienna Art Orchestra - The Minimalism of Erik Satie (1989)\03 - Reflections On Severe Reprimande.wav
Pre-gap length 0:00:02.10
Peak level 100.0 %
Extraction speed 2.8 X
Track quality 100.0 %
Test CRC AC46B9F9
Copy CRC AC46B9F9
Accurately ripped (confidence 7) [702F0180] (AR v1)
Copy OK
Track 4
Filename E:\rip by readab\Vienna Art Orchestra - The Minimalism of Erik Satie (1989)\04 - Reflections On Idylle.wav
Pre-gap length 0:00:02.15
Peak level 67.0 %
Extraction speed 3.1 X
Track quality 100.0 %
Test CRC CE7CD8B3
Copy CRC CE7CD8B3
Accurately ripped (confidence 9) [84FC51C2] (AR v1)
Copy OK
Track 5
Filename E:\rip by readab\Vienna Art Orchestra - The Minimalism of Erik Satie (1989)\05 - Gnossienne No. 3 by Erik Satie.wav
Pre-gap length 0:00:03.42
Peak level 54.9 %
Extraction speed 3.1 X
Track quality 100.0 %
Test CRC FFC9D418
Copy CRC FFC9D418
Accurately ripped (confidence 9) [FE1E122E] (AR v1)
Copy OK
Track 6
Filename E:\rip by readab\Vienna Art Orchestra - The Minimalism of Erik Satie (1989)\06 - Reflections on Gnossienne No. 2.wav
Pre-gap length 0:00:01.50
Peak level 60.8 %
Extraction speed 3.5 X
Track quality 100.0 %
Test CRC 738A8C7D
Copy CRC 738A8C7D
Accurately ripped (confidence 2) [E114683D] (AR v2)
Copy OK
Track 7
Filename E:\rip by readab\Vienna Art Orchestra - The Minimalism of Erik Satie (1989)\07 - Reflections on Gnossienne No. 1.wav
Pre-gap length 0:00:02.27
Peak level 81.2 %
Extraction speed 3.5 X
Track quality 99.9 %
Test CRC FD161608
Copy CRC FD161608
Accurately ripped (confidence 6) [725B026A] (AR v1)
Copy OK
Track 8
Filename E:\rip by readab\Vienna Art Orchestra - The Minimalism of Erik Satie (1989)\08 - Satie Ist Mir Im Traum 3x Nicht Erschienen.wav
Pre-gap length 0:00:03.57
Peak level 53.7 %
Extraction speed 3.8 X
Track quality 99.9 %
Test CRC FB3E4668
Copy CRC FB3E4668
Accurately ripped (confidence 6) [E704F1BE] (AR v1)
Copy OK
Track 9
Filename E:\rip by readab\Vienna Art Orchestra - The Minimalism of Erik Satie (1989)\09 - Vexations 1801.wav
Pre-gap length 0:00:01.72
Peak level 56.3 %
Extraction speed 4.6 X
Track quality 100.0 %
Test CRC 82F573FC
Copy CRC 82F573FC
Accurately ripped (confidence 6) [584516DB] (AR v1)
Copy OK
Track 10
Filename E:\rip by readab\Vienna Art Orchestra - The Minimalism of Erik Satie (1989)\10 - Vexations 1611.wav
Pre-gap length 0:00:06.27
Peak level 47.1 %
Extraction speed 5.0 X
Track quality 100.0 %
Test CRC 1239E0DC
Copy CRC 1239E0DC
Accurately ripped (confidence 2) [9336252F] (AR v2)
Copy OK
Track 11
Filename E:\rip by readab\Vienna Art Orchestra - The Minimalism of Erik Satie (1989)\11 - Vexations 2105.wav
Pre-gap length 0:00:06.67
Peak level 34.9 %
Extraction speed 5.8 X
Track quality 100.0 %
Test CRC 8DB2865D
Copy CRC 8DB2865D
Accurately ripped (confidence 6) [C441C108] (AR v1)
Copy OK
All tracks accurately ripped
No errors occurred
End of status report
==== Log checksum DB8B9882473E02AA861B7F4B7430C5C1133BFB8B591FAAEBAEF2A6ECFE0386F9 ====
 
Содержание индексной карты (.CUE)
REM GENRE Jazz
REM DATE 1989
REM DISCID 9911A00B
REM COMMENT "ExactAudioCopy v1.0b3"
CATALOG 0000000000000
PERFORMER "Vienna Art Orchestra"
TITLE "The Minimalism of Erik Satie"
FILE "01 - Reflections On Aubade.wav" WAVE
TRACK 01 AUDIO
TITLE "Reflections On Aubade"
PERFORMER "Vienna Art Orchestra"
INDEX 01 00:00:00
TRACK 02 AUDIO
TITLE "Reflections On Meditation"
PERFORMER "Vienna Art Orchestra"
INDEX 00 02:56:45
FILE "02 - Reflections On Meditation.wav" WAVE
INDEX 01 00:00:00
TRACK 03 AUDIO
TITLE "Reflections On Severe Reprimande"
PERFORMER "Vienna Art Orchestra"
INDEX 00 03:32:43
FILE "03 - Reflections On Severe Reprimande.wav" WAVE
INDEX 01 00:00:00
TRACK 04 AUDIO
TITLE "Reflections On Idylle"
PERFORMER "Vienna Art Orchestra"
INDEX 00 02:55:15
FILE "04 - Reflections On Idylle.wav" WAVE
INDEX 01 00:00:00
TRACK 05 AUDIO
TITLE "Gnossienne No. 3 by Erik Satie"
PERFORMER "Vienna Art Orchestra"
INDEX 00 03:57:55
FILE "05 - Gnossienne No. 3 by Erik Satie.wav" WAVE
INDEX 01 00:00:00
TRACK 06 AUDIO
TITLE "Reflections on Gnossienne No. 2"
PERFORMER "Vienna Art Orchestra"
INDEX 00 02:58:13
FILE "06 - Reflections on Gnossienne No. 2.wav" WAVE
INDEX 01 00:00:00
TRACK 07 AUDIO
TITLE "Reflections on Gnossienne No. 1"
PERFORMER "Vienna Art Orchestra"
INDEX 00 04:23:40
FILE "07 - Reflections on Gnossienne No. 1.wav" WAVE
INDEX 01 00:00:00
TRACK 08 AUDIO
TITLE "Satie Ist Mir Im Traum 3x Nicht Erschienen"
PERFORMER "Vienna Art Orchestra"
INDEX 00 05:49:58
FILE "08 - Satie Ist Mir Im Traum 3x Nicht Erschienen.wav" WAVE
INDEX 01 00:00:00
TRACK 09 AUDIO
TITLE "Vexations 1801"
PERFORMER "Vienna Art Orchestra"
INDEX 00 06:21:38
FILE "09 - Vexations 1801.wav" WAVE
INDEX 01 00:00:00
TRACK 10 AUDIO
TITLE "Vexations 1611"
PERFORMER "Vienna Art Orchestra"
INDEX 00 08:45:33
FILE "10 - Vexations 1611.wav" WAVE
INDEX 01 00:00:00
TRACK 11 AUDIO
TITLE "Vexations 2105"
PERFORMER "Vienna Art Orchestra"
INDEX 00 09:37:48
FILE "11 - Vexations 2105.wav" WAVE
INDEX 01 00:00:00
Any questions -> support@pro-jazz.com. По всем вопросам пишите -> support@pro-jazz.com
09:14
187
Нет комментариев. Ваш будет первым!