Поиск

(Modern Creative Jazz / Free Jazz) Grencso Bio Collective - Zumzoo - 2006, APE (image+.cue), lossless

Треклист:
Grencsó Bio Kollektív - Zumzoo
Жанр: Modern Creative Jazz / Free Jazz
Год записи альбома: 2005
Год выпуска диска: 2006
Страна исполнителя: Hungary
Производитель диска: Hungary
Аудио кодек: APE
Тип рипа: image+.cue
Битрейт аудио: lossless
Продолжительность: 59:51
Треклист:
01. Agyag Arc Clay Face (07:03)
02. Zumzoo (07:30)
03. Skatulya Spirit in the Box (08:20)
04. 7 Lakat Alatt Under Seven Locks (03:12)
05. Jerevan Yerevan (06:54)
06. Barzene Bar Music (07:51)
07. Lougras Horse Step (08:51)
08. Regi Nota Old Song (05:58)
09. Angyalsirato Angel Funeral-Song (04:07)
Иштван Гренчо (István Grencsó) – тенор-, сопрано-саксофон, дудук, зурна
Роберт Бенко (Robert Benkő) – контрабас
Ханс фон Флит (Hans van Vliet) - тромбон
Дёрдь Йесенски (György Jeszenszky) – ударные
Кальман Мандри (Kálmán Mándy) - перкуссия
 
Biography
Saxophonist and flautist István Grencsó is an outstanding figure in Hungarian avant-garde jazz.
His career started in 1979 with the founding of the Masina Jazz Group, but he became more widely known in the 1980s as György Szabados’s partner.
In 1984 he formed Collective, which has been his main vehicle ever since. With this continually changing line-up he has released ten albums, amongst which the most important are Plays Monk (1996), Villa Negra (1997), Black Bread (1999), Seven Songs to the Last Mohicans (2000) and Dream Car (2003).
Grencsó’s repertoire is extremely varied, and as a composer he is considered the master of formal changes. “I always like to search for something exciting,” as he puts it.
As well as experiments in improvised music he has arranged countless jazz standards, and regardless of current trends and fashions has played pop, rock, and ethno music. He also reinterpreted Hungarian dance music of the sixties, chansons, and composed a suite which veers towards classical music. He plays with Kampec Dolores, is a permanent member of the MAKUZ led by György Szabados and of the electronically inclined Budbudas. Recently he has also appeared several times with the Moroccan-rooted Gnawa Trio, his own neobeat group AMA, and has worked with the noise rock band Pozvakowski.
He has played in concerts and recorded with Paul Termos, Peter Kowald, Tobias Delius, Peter Brötzmann and the Noise Orchestra from Russia.
His ars poetica, to think free of convention, is set out in the portrait film Szabad vagyok (I am free) made by Duna TV.источник
 
инфо
20 октября 2007, клуб-центр "ДОМ": Grencso Bio Kollektiv (Венгрия). Иштван Гренчо (Istvan Grencso) - тенор-, сопрано-саксофон, дудук, зурна; Роберт Бенко (Benko Robert) - контрабас; Ханс фон Флит (Hans van Vliet) - тромбон; Дьёрдь Йесенски (Jeszenszky Gyorgy) - ударные.
Венгерский саксофонист Иштван Гренчо - не слишком редкий гость российской столицы. Его можно встретить в составе легендарной авант-рок группы Kampec Dolores, в компании музыкантов группы "Дети Picasso" или же увидеть в программе Дмитрия Диброва "ProCвет". На этот раз главный венгерский фриджазовый музыкант приезжает в Москву со своим квартетом Grencso Bio Kollektiv. Те, кто был три года назад на фестивале "Этнополь" в ДОМе, не забудут самый сильный концерт фестиваля, мощный и насыщенный звук "венгерской коллективы", педалирующую ритм-секцию Бенко-Йесенски и дрейфующий саксофон Иштвана Гренчо. На этот раз с основным составом коллективы в Москву приедет и голландский тромбонист Ханс фон Флит.
Визит коллективы в Москву приурочен сразу к двум событиям - 50-летнему юбилею Иштвана Гренчо и выпуску нового альбома Grencso Bio Kollektiv "Zumzoo" на московском лейбле Deep Music. Как известно, каждая новая работа Гренчо кардинально отличается от предыдущих. Альбом 1999 года "Mistery" включал фри-джазовые каверы на венгерские шлягеры 50-60-х годов, последовавший в 2001 г. диск "7 Songs" состоял из синтеза современного авангарда, джаза и хоровой музыки, а саундтрек к диафильму "DreamCar" и вовсе был экспериментом над всеми видами звуковой выразительной формы. Свежеиспеченная пластинка" Zumzoo" более традиционна по звучанию и отдает настроениями Орнетта Коулмена и Джона Колтрейна. Характерной чертой нового звучания группы является использование армянских народных инструментов - дудука и зурны. Однако от этого музыка никоим образом не превращается в фольклорную. Осваивать эти инструменты Гренчо начал, посетив несколько раз Ереван, но дудук и зурна у Иштвана звучат по-своему, по-венгерски.источник
 
Отчет EAC
Отчёт EAC об извлечении, выполненном 31. июля 2010, 11:22 для диска:
Grencso Bio Kollektiv / Zumzoo
Дисковод: Optiarc DVD RW AD-7200S Adapter: 0 ID: 1
Режим чтения: Достоверный (C2: нет, Точный поток: да, Отключение кэша: да)
Коррекция смещения при чтении: 48
Способность читать области Lead-in и Lead-out : Нет
Выходной формат: Внутренние WAV-операции
44.100 Гц; 16 бит; стерео
Другие параметры:
Заполнение пропущенных сэмплов тишиной : Да
Удаление блоков с тишиной в начале и конце : Нет
Установленный внешний ASPI-интерфейс
Характеристики диапазона извлечения и сообщения об ошибках
Выбранный диапазон
Имя файла M:\LossLess\свои раздачи\Grencso Bio Kollektiv - Zumzoo\Grencso Bio Kollektiv - Zumzoo.wav
Пиковый уровень 100.0 %
Качество диапазона 100.0 %
CRC 2D5E5595
Копирование... OK
Ошибок не произошло
Конец отчёта
 
Отчет Audiochecker
AUDIOCHECKER v2.0 beta (build 457) - by Dester - opdester@freemail.hu
~~~~~~~~~~~~~~~~~~~~~~~~~~~~~~~~~~
Начато: суббота, 31. 07. 2010. - 17:25.42
Найдено файлов: 1
1 -===- ....\Grencso Bio Kollektiv - Zumzoo.ape
Извлечение успешно выполнено
Заключение: этот трек - CDDA с вероятностью 100%
Временный файл удалён.
Завершено: суббота, 31. 07. 2010. - 17:31.07 (Время операции: 0:05.25)
 
.cue
REM GENRE "Avantgarde Jazz"
REM DATE 2006
REM DISCID 710E0709
REM COMMENT "ExactAudioCopy v0.95b4"
PERFORMER "Grencso Bio Kollektiv"
TITLE "Zumzoo"
FILE "Grencso Bio Kollektiv - Zumzoo.ape" WAVE
TRACK 01 AUDIO
TITLE "Clay face"
PERFORMER "Grencso Bio Kollektiv"
INDEX 01 00:00:00
TRACK 02 AUDIO
TITLE "Zumzoo"
PERFORMER "Grencso Bio Kollektiv"
INDEX 01 07:03:34
TRACK 03 AUDIO
TITLE "Spirit In the Box"
PERFORMER "Grencso Bio Kollektiv"
INDEX 01 11:11:27
TRACK 04 AUDIO
TITLE "Under 7 Locks"
PERFORMER "Grencso Bio Kollektiv"
INDEX 01 19:02:29
TRACK 05 AUDIO
TITLE "Yerevan"
PERFORMER "Grencso Bio Kollektiv"
INDEX 01 25:57:17
TRACK 06 AUDIO
TITLE "Bar Music"
PERFORMER "Grencso Bio Kollektiv"
INDEX 01 29:09:72
TRACK 07 AUDIO
TITLE "Horse Step"
PERFORMER "Grencso Bio Kollektiv"
INDEX 01 38:01:35
TRACK 08 AUDIO
TITLE "Old Song"
PERFORMER "Grencso Bio Kollektiv"
INDEX 01 44:00:13
TRACK 09 AUDIO
TITLE "Angel Funeral-Song"
PERFORMER "Grencso Bio Kollektiv"
INDEX 01 52:21:12
Большой друг детей вообще, и "Детей Пикассо" в особенности с очередной порцией вкусного. Авангард без какофонии, мелос без лубочности, строгость без пуританства. На этот раз представителем музыкального интернационала у Гренчо выступил голландец Ханс фон Флит, чей тромбон, безусловно, украсил альбом.
сканы 300 dpi внутри
другие альбомы István Grencsó (картинки ссылки)
По всем вопросам пишите личное сообщение пользователю M0p94ok.
01:42
158
Нет комментариев. Ваш будет первым!